Супермен: Непобежденный / Superman: Unbound (Джеймс Такер / James Tucker) [2013, мультфильм, боевик, приключения, BDRip] Dub

Ответить на тему
 
Автор Сообщение

user ®

Стаж: 13 лет

Сообщений: 15041

Пост Пост: #1 от 15-Ноя-2013 20:30

[Цитировать]

Супермен: Непобежденный / Superman: Unbound«The machine is coming»- Страна: США
Жанр: мультфильм, боевик, приключения
Год выпуска: 2013
Продолжительность: 01:15:16
Перевод: Профессиональный (полное дублирование)
Субтитры: Нет-Режиссер: Джеймс Такер / James Tucker-Описание: К городу приближается несокрушимый андроид. К Земле приближается огненный шар. Бесстрашная красавица-журналистка приближается к своей цели - сделать об этом репортаж.
Это самый обычный день для Человека из стали, только на этот раз плечом к плечу с ним сражается его двоюродная сестра, Супердевушка. Приключения начинаются, когда Супермен узнаёт о том, что силы безжалостного Брэйниака смогли уменьшить и захватить Кандор, столицу планеты Криптон.
Супермен намерен во что бы то ни стало освободить порабощенную метрополию и защитить родную планету от растущего могущества Брэйниака.
-Рейтинг:

MPAA: - Детям до 13 лет просмотр не желателен-Мировая премьера: 23 апреля 2013
Релиз на DVD: 23 мая 2013, «CP Дистрибуция»--Семпл-Качество: BDRip
Формат: AVI
Видео: 656x368 (1.78:1), 23.976 fps, XviD build 65 ~1245 kbps avg, 0.22 bit/pixel
Аудио: 48 kHz, MPEG Layer 3, 2 ch, ~128.00 kbps avg
Субтитры: Отсутствуют

MI

Format : AVIFormat/Info : Audio Video InterleaveFile size : 745 MiBDuration : 1h 15mnOverall bit rate : 1 383 KbpsWriting application : VirtualDubMod 1.5.10.3 | www.virtualdub-fr.org || (build 2550/release)Writing library : VirtualDubMod build 2550/release
VideoID : 0Format : MPEG-4 VisualFormat profile : Advanced Simple@L5Format settings, BVOP : 2Format settings, QPel : NoFormat settings, GMC : No warppointsFormat settings, Matrix : CustomCodec ID : XVIDCodec ID/Hint : XviDDuration : 1h 15mnBit rate : 1 246 KbpsWidth : 656 pixelsHeight : 368 pixelsDisplay aspect ratio : 16:9Frame rate : 23.976 fpsColor space : YUVChroma subsampling : 4:2:0Bit depth : 8 bitsScan type : ProgressiveCompression mode : LossyBits/(Pixel*Frame) : 0.215Stream size : 671 MiB (90%)Writing library : XviD 65
AudioID : 1Format : MPEG AudioFormat version : Version 1Format profile : Layer 3Codec ID : 55Codec ID/Hint : MP3Duration : 1h 15mnBit rate mode : ConstantBit rate : 128 KbpsChannel(s) : 2 channelsSampling rate : 48.0 KHzCompression mode : LossyStream size : 68.9 MiB (9%)Alignment : Aligned on interleavesInterleave, duration : 42 ms (1.00 video frame)Interleave, preload duration : 504 msWriting library : LAME3.99rEncoding settings : -m s -V 4 -q 2 -lowpass 17 -b 128
-
Скачать

Скачать торрент! Супермен: Непобежденный / Superman: Unbound (Джеймс Такер / James Tucker) [2013, мультфильм, боевик, приключения, BDRip] Dub

Как скачивать? · Что такое торрент? · Рейтинг и ограничения

Сайт не распространяет и не хранит электронные версии произведений, а лишь предоставляет доступ к создаваемому пользователями каталогу ссылок на торрент-файлы, которые содержат только списки хеш-сумм

[Профиль] [ЛС]
Показать сообщения:    
Ответить на тему

Текущее время: Сегодня 23:48

Часовой пояс: GMT + 4



Вы не можете начинать темы
Вы не можете отвечать на сообщения
Вы не можете редактировать свои сообщения
Вы не можете удалять свои сообщения
Вы не можете голосовать в опросах
Вы не можете прикреплять файлы к сообщениям
Вы не можете скачивать файлы