Бункер / Тёмная сторона / The Hidden Face / La cara oculta (Андрес Баиз / Andres Baiz) [2011, Колумбия, Испания, триллер, BDRip 720p] [FRE Transfer] MVO (R5) + Original (Spa) + Subs (Rus, Eng)

Ответить на тему
 
Автор Сообщение

user ®

Стаж: 7 лет 7 месяцев

Сообщений: 20008

Пост Пост: #1 от 15-Ноя-2013 20:30

[Цитировать]

Бункер / Тёмная сторона / The Hidden Face / La cara oculta Страна: Колумбия, Испания
Студия: Avalon, Cactus Flower, ...
Жанр: триллер
Год выпуска: 2011
Продолжительность: 01:36:15
Перевод: Профессиональный (многоголосый закадровый) R5
Cубтитры: английские, английские (SDH), русские, французские
Оригинальная аудиодорожка: испанский
Режиссер: Андрес Баиз / Andres Baiz
В ролях: Клара Лаго, Ким Гутьеррес, Мартина Гарсия, Хуан Альфонсо Баптиста, Марсела Бенхумеа, Марсела Мар Умберто Дорадо, Хосе Луис Гарсиа, Марсела Гардеазабаль, Мозад, Александра Стюарт
Описание:
Официантка Фабиана знакомится с одним из случайных посетителей, переживающим сложный период в жизни. Между ними вспыхивает страсть. Для девушки все кажется идеальным: ее любимый работает дирижером оркестра филармонии в Боготе и владеет огромным особняком. Однако вскоре появляются непредвиденные сложности. Полиция расследует таинственное исчезновения бывшей невесты и подруги дирижера, а сама девушка начинает чувствовать, что в доме происходит нечто странное.
- ||-Тип релиза: BDRip 720p (рип от TayTO)

Контейнер: MKV
Видео: AVC (x264), 1280x546 (2,35:1) at 24,000 fps, 6708 Кbps, 0.400 bpp
Аудио 1: AC3; 448 Kbps; CBR; 6 ch; 48 khz | MVO - R5 |
Аудио 2: AC3; 640 Kbps; CBR; 6 ch; 48 khz | Испанский |
Формат субтитров: softsub (SRT)

Скриншоты || x264 Info || MediaInfo || Notes

Аудио дорожка №1, RU субтитры взяты с этой [url=http://***/forum/viewtopic.php?t=4585757]раздачи[/url], thx: arxivariys
-
Used Fillmargins.

MediaInfo

Общее
Уникальный идентификатор                 : 186815963491448375157663263440482276535 (0x8C8B72211D145257839BEEEBFF2714B7)
Полное имя                               : Бункер.2011.P.720p.BluRay.x264-TayTO.mkv
Формат                                   : Matroska
Версия формата                           : Version 4 / Version 2
Размер файла                             : 5,35 Гбайт
Продолжительность                        : 1 ч. 36 м.
Общий поток                              : 7955 Кбит/сек
Название фильма                          : La cara oculta [720p] [2011] MVO
Дата кодирования                         : UTC 2013-11-14 07:33:06
Программа кодирования                    : mkvmerge v6.5.0 ('Isn't she lovely') built on Oct 20 2013 12:50:05
Библиотека кодирования                   : libebml v1.3.0 + libmatroska v1.4.1
Видео
Идентификатор                            : 1
Формат                                   : AVC
Формат/Информация                        : Advanced Video Codec
Профиль формата                          : High@L4.1
Параметр CABAC формата                   : Да
Параметр ReFrames формата                : 11 кадров
Идентификатор кодека                     : V_MPEG4/ISO/AVC
Продолжительность                        : 1 ч. 36 м.
Битрейт                                  : 6708 Кбит/сек
Ширина                                   : 1280 пикселей
Высота                                   : 546 пикселей
Соотношение сторон                       : 2,35:1
Режим частоты кадров                     : Постоянный
Частота кадров                           : 24,000 кадра/сек
Цветовое пространство                    : YUV
Субдискретизация насыщенности            : 4:2:0
Битовая глубина                          : 8 бит
Тип развёртки                            : Прогрессивная
Бит/(Пиксели*Кадры)                      : 0.400
Размер потока                            : 4,51 Гбайт (84%)
Заголовок                                : profile.php?mode=viewprofile&u=22488948
Библиотека кодирования                   : x264 core 140 r2377 1ca7bb9
Настройки программы                      : cabac=1 / ref=11 / deblock=1:-3:-3 / analyse=0x3:0x133 / me=tesa / subme=10 / psy=1 / psy_rd=1.05:0.00 / mixed_ref=1 / me_range=16 / chroma_me=1 / trellis=2 / 8x8dct=1 / cqm=0 / deadzone=21,11 / fast_pskip=0 / chroma_qp_offset=-2 / threads=12 / lookahead_threads=2 / sliced_threads=0 / nr=0 / decimate=1 / interlaced=0 / bluray_compat=0 / constrained_intra=0 / bframes=9 / b_pyramid=2 / b_adapt=2 / b_bias=0 / direct=3 / weightb=1 / open_gop=0 / weightp=2 / keyint=250 / keyint_min=24 / scenecut=40 / intra_refresh=0 / rc=crf / mbtree=0 / crf=16.0 / qcomp=0.70 / qpmin=0 / qpmax=69 / qpstep=4 / ip_ratio=1.40 / pb_ratio=1.30 / aq=1:0.70
Язык                                     : English
Default                                  : Да
Forced                                   : Нет
Коэффициенты матрицы                     : BT.709
Аудио #1
Идентификатор                            : 2
Формат                                   : AC-3
Формат/Информация                        : Audio Coding 3
Расширение режима                        : CM (complete main)
Параметр Endianness формата              : Big
Идентификатор кодека                     : A_AC3
Продолжительность                        : 1 ч. 36 м.
Вид битрейта                             : Постоянный
Битрейт                                  : 448 Кбит/сек
Каналы                                   : 6 каналов
Расположение каналов                     : Front: L C R, Side: L R, LFE
Частота                                  : 48,0 КГц
Битовая глубина                          : 16 бит
Метод сжатия                             : С потерями
Размер потока                            : 308 Мбайт (6%)
Заголовок                                : P, MVO [R5]
Язык                                     : Russian
Default                                  : Да
Forced                                   : Нет
Аудио #2
Идентификатор                            : 3
Формат                                   : AC-3
Формат/Информация                        : Audio Coding 3
Расширение режима                        : CM (complete main)
Параметр Endianness формата              : Big
Идентификатор кодека                     : A_AC3
Продолжительность                        : 1 ч. 36 м.
Вид битрейта                             : Постоянный
Битрейт                                  : 640 Кбит/сек
Каналы                                   : 6 каналов
Расположение каналов                     : Front: L C R, Side: L R, LFE
Частота                                  : 48,0 КГц
Битовая глубина                          : 16 бит
Метод сжатия                             : С потерями
Размер потока                            : 441 Мбайт (8%)
Язык                                     : Spanish
Default                                  : Нет
Forced                                   : Нет
Текст #1
Идентификатор                            : 4
Формат                                   : UTF-8
Идентификатор кодека                     : S_TEXT/UTF8
Идентификатор кодека/Информация          : UTF-8 Plain Text
Язык                                     : English
Default                                  : Нет
Forced                                   : Нет
Текст #2
Идентификатор                            : 5
Формат                                   : UTF-8
Идентификатор кодека                     : S_TEXT/UTF8
Идентификатор кодека/Информация          : UTF-8 Plain Text
Заголовок                                : SDH
Язык                                     : English
Default                                  : Нет
Forced                                   : Нет
Текст #3
Идентификатор                            : 6
Формат                                   : UTF-8
Идентификатор кодека                     : S_TEXT/UTF8
Идентификатор кодека/Информация          : UTF-8 Plain Text
Язык                                     : French
Default                                  : Нет
Forced                                   : Нет
Текст #4
Идентификатор                            : 7
Формат                                   : UTF-8
Идентификатор кодека                     : S_TEXT/UTF8
Идентификатор кодека/Информация          : UTF-8 Plain Text
Язык                                     : Russian
Default                                  : Нет
Forced                                   : Нет
Меню
00:00:00.000                             : en:00:00:00.000
00:08:16.083                             : en:00:08:16.083
00:16:01.292                             : en:00:16:01.292
00:24:15.083                             : en:00:24:15.083
00:31:48.833                             : en:00:31:48.833
00:40:34.000                             : en:00:40:34.000
00:48:04.208                             : en:00:48:04.208
00:55:54.125                             : en:00:55:54.125
01:04:22.917                             : en:01:04:22.917
01:12:00.500                             : en:01:12:00.500
01:20:31.417                             : en:01:20:31.417
01:28:07.333                             : en:01:28:07.333

x264 Info

x264 [info]: frame I:1003 Avg QP:12.94 size:119043
x264 [info]: frame P:26477 Avg QP:14.34 size: 60478
x264 [info]: frame B:111012 Avg QP:16.88 size: 29145
x264 [info]: consecutive B-frames: 1.5% 1.3% 7.2% 9.7% 15.3% 40.8% 10.3% 5.5% 5.6% 2.9%
Скачать

Скачать торрент!

Как скачивать? · Что такое торрент? · Рейтинг и ограничения

Сайт не распространяет и не хранит электронные версии произведений, а лишь предоставляет доступ к создаваемому пользователями каталогу ссылок на торрент-файлы, которые содержат только списки хеш-сумм

[Профиль] [ЛС]
Показать сообщения:    
Ответить на тему

Текущее время: Сегодня 15:37

Часовой пояс: GMT + 4



Вы не можете начинать темы
Вы не можете отвечать на сообщения
Вы не можете редактировать свои сообщения
Вы не можете удалять свои сообщения
Вы не можете голосовать в опросах
Вы не можете прикреплять файлы к сообщениям
Вы не можете скачивать файлы