Ярость чести / Rage of Honor (Гордон Хесслер / Gordon Hessler) [1987, Аргентина, США, боевик, драма, HDTV 1080i] DVO (НТВ+) + AVO (Ю. Немахов) + Sub Eng + Original Eng

Ответить на тему
 
Автор Сообщение

user ®

Стаж: 7 лет 7 месяцев

Сообщений: 20008

Пост Пост: #1 от 15-Ноя-2013 20:30

[Цитировать]

Ярость чести / Rage of Honor
Страна: Аргентина, США
Студия: Negocios Cinematograficos S.A., TransWorld Entertainment (TWE)
Жанр: боевик, драма
Год выпуска: 1987
Продолжительность: 01:27:55
Перевод 1: Профессиональный (двухголосый закадровый) НТВ+
Перевод 2: Авторский (одноголосый закадровый) Юрий Немахов
Cубтитры: английские
Оригинальная аудиодорожка: английский
Режиссер: Гордон Хесслер / Gordon Hessler
В ролях: Сё Косуги /Sho Kosugi/, Льюис Ван Берген /Lewis Van Bergen/, Робин Эванс /Robin Evans/, Джерри Гибсон /Gerry Gibson/, Чарльз Люсия /Charles Lucia/, Ричард Уайли /Richard Wiley/, Карлос Эстрада /Carlos Estrada/, Улис Дюмон /Ulises Dumont/, Теодор МакНабни /Theodore McNabney/, Алан Амиел /Alan Amiel/, Арман Капо /Armando Capo/, Марли Джепсон /Marlee Jepson/, Эрик Сьюард /Eric Seward/
Описание: Косуги в роли следователя из отдела по борьбе с наркотиками, который выбивает дух из подонков, пытавших и убивших его помощника. А махать руками и ногами Косуги, мы знаем, умеет.

IMDB
Доп. информация:
За дополнительные дороги спасибо keastwood
Тип релиза: HDTV 1080i
Контейнер: MKV
Видео: AVC 1920x1080 (16:9)) 25.0fps Bit rate 7732Kbps
Аудио 1: MP2 48.0 KHz 2ch. 192kbps rus DVO
Аудио 2: AC3 48.0 KHz 6ch. 384kbps rus AVO
Аудио 3: AC3 48.0 KHz 2ch. 192kbps eng
Формат субтитров: softsub (SRT)

MediaInfo

Общее
Уникальный идентификатор : 231262750671839497052666944790492930242 (0xADFB95ED6C164EC0976366C64E10E0C2)
Полное имя : E:\torrent\Yarost chesti_HDTV 1080i.mkv
Формат : Matroska
Версия формата : Version 4 / Version 2
Размер файла : 5,33 Гбайт
Продолжительность : 1 ч. 28 м.
Общий поток : 8672 Кбит/сек
Дата кодирования : UTC 2013-11-15 02:30:36
Программа кодирования : mkvmerge v6.4.1 ('Omega Point') built on Sep 16 2013 22:05:10
Библиотека кодирования : libebml v1.3.0 + libmatroska v1.4.1
Видео
Идентификатор : 1
Формат : AVC
Формат/Информация : Advanced Video Codec
Профиль формата : High@L4.0
Параметр CABAC формата : Да
Параметр ReFrames формата : 3 кадра
Параметр GOP формата : M=4, N=32
Идентификатор кодека : V_MPEG4/ISO/AVC
Продолжительность : 1 ч. 28 м.
Битрейт : 7732 Кбит/сек
Ширина : 1920 пикселей
Высота : 1080 пикселей
Соотношение сторон : 16:9
Режим частоты кадров : Постоянный
Частота кадров : 25,000 кадров/сек
Стандарт вещания : Component
Цветовое пространство : YUV
Субдискретизация насыщенности : 4:2:0
Битовая глубина : 8 бит
Тип развёртки : Чересстрочная
Порядок развёртки : Верхнее поле первое
Бит/(Пиксели*Кадры) : 0.149
Размер потока : 4,75 Гбайт (89%)
Заголовок : Yarost chesti_HDTV 1080i
Default : Да
Forced : Нет
Основные цвета : BT.709
Характеристики трансфера : BT.709
Коэффициенты матрицы : BT.709
Аудио #1
Идентификатор : 2
Формат : MPEG Audio
Версия формата : Version 1
Профиль формата : Layer 2
Идентификатор кодека : A_MPEG/L2
Идентификатор кодека/Подсказка : MP2
Продолжительность : 1 ч. 28 м.
Вид битрейта : Постоянный
Битрейт : 192 Кбит/сек
Каналы : 2 канала
Частота : 48,0 КГц
Метод сжатия : С потерями
Размер потока : 121 Мбайт (2%)
Заголовок : Yarost chesti_MP2_2ch_DVO_NTV+
Язык : Russian
Default : Да
Forced : Нет
Аудио #2
Идентификатор : 3
Формат : AC-3
Формат/Информация : Audio Coding 3
Расширение режима : CM (complete main)
Параметр Endianness формата : Big
Идентификатор кодека : A_AC3
Продолжительность : 1 ч. 28 м.
Вид битрейта : Постоянный
Битрейт : 384 Кбит/сек
Каналы : 6 каналов
Расположение каналов : Front: L C R, Side: L R, LFE
Частота : 48,0 КГц
Битовая глубина : 16 бит
Метод сжатия : С потерями
Размер потока : 242 Мбайт (4%)
Заголовок : Yarost chesti_AC3_6ch_AVO_U. Nemahov
Язык : Russian
Default : Нет
Forced : Нет
Аудио #3
Идентификатор : 4
Формат : AC-3
Формат/Информация : Audio Coding 3
Расширение режима : CM (complete main)
Параметр Endianness формата : Big
Идентификатор кодека : A_AC3
Продолжительность : 1 ч. 28 м.
Вид битрейта : Постоянный
Битрейт : 192 Кбит/сек
Каналы : 2 канала
Расположение каналов : Front: L R
Частота : 48,0 КГц
Битовая глубина : 16 бит
Метод сжатия : С потерями
Размер потока : 121 Мбайт (2%)
Заголовок : Yarost chesti_AC3_2ch_original eng
Язык : English
Default : Нет
Forced : Нет
Текст
Идентификатор : 5
Формат : UTF-8
Идентификатор кодека : S_TEXT/UTF8
Идентификатор кодека/Информация : UTF-8 Plain Text
Заголовок : Yarost chesti_subtitle eng
Язык : English
Default : Нет
Forced : Нет

Скриншоты

Сравнение с DVD


Скачать

Скачать торрент!

Как скачивать? · Что такое торрент? · Рейтинг и ограничения

Сайт не распространяет и не хранит электронные версии произведений, а лишь предоставляет доступ к создаваемому пользователями каталогу ссылок на торрент-файлы, которые содержат только списки хеш-сумм

[Профиль] [ЛС]
Показать сообщения:    
Ответить на тему

Текущее время: Сегодня 12:04

Часовой пояс: GMT + 4



Вы не можете начинать темы
Вы не можете отвечать на сообщения
Вы не можете редактировать свои сообщения
Вы не можете удалять свои сообщения
Вы не можете голосовать в опросах
Вы не можете прикреплять файлы к сообщениям
Вы не можете скачивать файлы