Голод / Hunger, The (Тони Скотт / Tony Scott) [1983, Великобритания, ужасы, триллер, драма, мелодрама, WEB-DL 720p] AVO (Михалёв) + MVO + Sub Rus, Eng + Original Eng

Ответить на тему
 
Автор Сообщение

user ®

Стаж: 7 лет 7 месяцев

Сообщений: 20008

Пост Пост: #1 от 15-Ноя-2013 20:30

[Цитировать]

Голод / Hunger, The
Страна: Великобритания
Студия: Metro-Goldwyn-Mayer (MGM)
Жанр: ужасы, триллер, драма, мелодрама
Год выпуска: 1983
Продолжительность: 01:36:31
Перевод 1: Авторский (одноголосый закадровый) АЛЕКСЕЙ МИХАЛЁВ
Перевод 2: Профессиональный (многоголосый закадровый)
Cубтитры: русские, английские
Оригинальная аудиодорожка: английский
Режиссер: Тони Скотт / Tony Scott
В ролях: Катрин Денев /Catherine Deneuve/, Дэвид Боуи /David Bowie/, Сьюзан Сарандон /Susan Sarandon/, Клифф Де Янг /Cliff De Young/, Дэн Хедайя /Dan Hedaya/, Бет Элерс /Beth Ehlers/
Описание: Завораживющий, очень красиво снятый фильм с сочетанием ужасов и эротики о вампирше Денев, которой необходима кровь, чтобы поддерживать в себе вечную жизнь и молодость. Черные кожаные костюмы, черные очки, секс, эстетически выдержанная стилизация смерти, крови и эротики в сочетании с соответствующей музыкой. Сэрэндон, проводящая опыты над обезьянами в исследовательской клинике, становится жертвой и подругой Денев в вампирских кроваво-сексуальных оргиях. Расплата за наслаждения очень высока - Боуи, например, вкусивший этих прелестей, стареет не по дням, а по часам. Сцены старения потрясающи. Фильм, вообще, можно пересматривать много раз, каждый раз угадывая как в зрительном, так и в содержательном плане что-то новое на уровне воображения. Каждый кадр - шедевр фотографии. Уиллем Дэфо снялся в эпизоде, обратите внимание. Ищите в переводе Михалева. Родителям не стоит показывать эту ленту детям до шестнадцати. (Иванов М.)
"Альтернативное описание: Холодная и прекрасная вампирша Мириэм, блуждает в потемках модных ночных клубов Манхэттена в поисках свежей крови. Джон - ее двухсотлетний партнер, с которым бессмертная героиня делит не только свою тайную жизнь, но и тайные страсти! Но, когда ее верный напарник Джон внезапно начинает необъяснимым образом стареть, к нему на помощь является обворожительная женщина-ученый, которая становится частью ужасного треугольника, сотканного из желания, секса и крови...
Эта элегантная, "ослепительно красивая" (Винсент Кэнби, "The New York Times") картина - провокационная экранизация древней вампирской легенды, стильный дебют знаменитого режиссера Тони Скотта ("Шпионские игры", "Враг государства"). Снятый по роману-бестселлеру Уитли Страйбера, фильм собрал блестящий актерский состав: ослепительная "дневная красавица" Катрин Денев, великий Дэвид Боуи и обладательница "Оскара", несравненная Сьюзан Сарандон. Уже при одном перечислении этих звезд Вы можете испытать непреодолимый "Голод" посмотреть этот стильный эротический триллер.
--------------------------------------------------------------------
Оператор: Стивен Голдблатт /Stephen Goldblatt/
Сценарист: Майкл Томас /Michael Thomas/, Айвэн Дэвис /Ivan Davis/
Продюсер: Ричард Э. Шеферд /Richard A. Shepherd/
Монтажер: Памела Пауэр /Pamela Power/
Композитор: Денни Джэгер /Denny Jaeger/, Мишель Рубини /Michel Rubini/
Художник: Брайан Моррис /Brian Morris/
По произведению: Уитли Стрибер /Whitley Strieber/
--------------------------------------------------
КИНОПОИСК. RU
РЕЙТИНГ 7.158 оценки: 2591
6,4/10 from 13 005 users
--------------------------------------------------
--------------------------------------------------
СЭМПЛ
--------------------------------------------------
Примечание: Скорость маленькая 50 kb/c, но раздаю круглосуточно.
--------------------------------------------------
Тип релиза: WEB-DL 720p
Контейнер: MKV
Видео: 1280x534; 23.976 fps; ~ 4 033Kbps; 0.246 Bits/Pixel
Аудио 1: Russian - 48 kHz, AC3 Dolby Digital, 2/0 (L,R) 2ch, ~192 kbps - Алексей Михалёв
Аудио 2: Russian - 48 kHz, AC3 Dolby Digital, 2/0 (L,R) 2ch, ~192 kbps - MVO
Аудио 3: English - 48 kHz, AC3 Dolby Digital, 2/0 (L,R) 2ch, ~192 kbps - Original
Формат субтитров: Russian (*UTF-8), English (*UTF-8)

MediaInfo

General
Complete name : F:\EXCLUZIVE=19\ГОЛОД [HUNGER, THE.1983.]\Hunger.The.1983\The.Hunger.1983.720p.WEB-DL.mkv
Format : Matroska
File size : 3.17 GiB
Duration : 1h 36mn
Overall bit rate : 4 702 Kbps
Encoded date : UTC 2013-11-11 17:57:39
Writing application : mkvmerge v3.3.0 ('Language') built on Mar 24 2010 14:59:24
Writing library : libebml v0.8.0 + libmatroska v0.9.0
Video
ID : 1
Format : AVC
Format/Info : Advanced Video Codec
Format profile : Main@L3.1
Format settings, CABAC : No
Format settings, ReFrames : 2 frames
Format settings, GOP : M=2, N=32
Muxing mode : Container profile=Unknown@3.1
Codec ID : V_MPEG4/ISO/AVC
Duration : 1h 36mn
Bit rate : 4 033 Kbps
Width : 1 280 pixels
Height : 534 pixels
Display aspect ratio : 2.35:1
Frame rate : 23.976 fps
Color space : YUV
Chroma subsampling : 4:2:0
Bit depth : 8 bits
Scan type : Progressive
Bits/(Pixel*Frame) : 0.246
Stream size : 2.72 GiB (86%)
Title : The.Hunger.1983.
Language : English
Color primaries : BT.709-5, BT.1361, IEC 61966-2-4, SMPTE RP177
Transfer characteristics : BT.709-5, BT.1361
Matrix coefficients : BT.709-5, BT.1361, IEC 61966-2-4 709, SMPTE RP177
Audio #1
ID : 2
Format : AC-3
Format/Info : Audio Coding 3
Mode extension : CM (complete main)
Codec ID : A_AC3
Duration : 1h 36mn
Bit rate mode : Constant
Bit rate : 192 Kbps
Channel(s) : 2 channels
Channel positions : Front: L R
Sampling rate : 48.0 KHz
Stream size : 133 MiB (4%)
Title : AVO Михалёв @ AC3 2ch 192 kbps
Language : Russian
Audio #2
ID : 3
Format : AC-3
Format/Info : Audio Coding 3
Mode extension : CM (complete main)
Codec ID : A_AC3
Duration : 1h 36mn
Bit rate mode : Constant
Bit rate : 192 Kbps
Channel(s) : 2 channels
Channel positions : Front: L R
Sampling rate : 48.0 KHz
Stream size : 133 MiB (4%)
Title : MVO @ AC3 2ch 192 kbps
Language : Russian
Audio #3
ID : 4
Format : AC-3
Format/Info : Audio Coding 3
Mode extension : CM (complete main)
Codec ID : A_AC3
Duration : 1h 36mn
Bit rate mode : Constant
Bit rate : 192 Kbps
Channel(s) : 2 channels
Channel positions : Front: L R
Sampling rate : 48.0 KHz
Stream size : 133 MiB (4%)
Title : Original @ AC3 2ch 192 kbps
Language : English
Text #1
ID : 5
Format : UTF-8
Codec ID : S_TEXT/UTF8
Codec ID/Info : UTF-8 Plain Text
Title : (* UTF-8)
Language : Russian
Text #2
ID : 6
Format : UTF-8
Codec ID : S_TEXT/UTF8
Codec ID/Info : UTF-8 Plain Text
Title : (* UTF-8)
Language : English
Menu
00:00:00.000 : en:1
00:03:10.000 : en:2
00:06:30.000 : en:3
00:12:29.000 : en:4
00:16:21.000 : en:5
00:21:10.000 : en:6
00:27:52.000 : en:7
00:32:26.000 : en:8
00:38:40.000 : en:9
00:44:50.000 : en:10
00:48:24.000 : en:11
00:52:23.000 : en:12
00:56:13.000 : en:13
01:00:05.000 : en:14
01:03:30.000 : en:15
01:08:30.000 : en:16
01:10:42.000 : en:17
01:13:54.000 : en:18
01:16:47.000 : en:19
01:21:12.000 : en:20
01:24:44.000 : en:21
01:29:48.000 : en:22
01:33:14.000 : en:23

Скриншоты

, ,
, ,
, ,
Скачать

Скачать торрент!

Как скачивать? · Что такое торрент? · Рейтинг и ограничения

Сайт не распространяет и не хранит электронные версии произведений, а лишь предоставляет доступ к создаваемому пользователями каталогу ссылок на торрент-файлы, которые содержат только списки хеш-сумм

[Профиль] [ЛС]
Показать сообщения:    
Ответить на тему

Текущее время: Сегодня 00:08

Часовой пояс: GMT + 4



Вы не можете начинать темы
Вы не можете отвечать на сообщения
Вы не можете редактировать свои сообщения
Вы не можете удалять свои сообщения
Вы не можете голосовать в опросах
Вы не можете прикреплять файлы к сообщениям
Вы не можете скачивать файлы