Философы: Урок выживания / The Philosophers (Джон Хаддлс / John Huddles) [2013, США, Индонезия, фантастика, триллер, DVDRip] Dub

Ответить на тему
 
Автор Сообщение

user ®

Стаж: 8 лет 3 месяца

Сообщений: 20008

Пост Пост: #1 от 15-Ноя-2013 17:20

[Цитировать]

Философы: Урок выживания
The Philosophers
--Страна: США, Индонезия
Жанр: фантастика, триллер
Год выпуска: 2013
Продолжительность: 01:42:20--Перевод: Профессиональный (дублированный)
Cубтитры: нет
Оригинальная аудиодорожка: нет--Режиссер: Джон Хаддлс / John Huddles--В ролях: Софи Лоу, Джеймс Д’Арси, Риз Уэйкфилд, Дэрил Сабара, Бонни Райт, Кэти Финдлей, Фредди Строма, Хоуп Олэйд Уилсон, Абхи Синха, Джейкоб Артист--Описание: В международной школе в Джакарте таинственный учитель философии в качестве выпускного экзамена предлагает 20 студентам провести эксперимент. Этот опыт будет самым экстремальным, с которым они когда-либо сталкивались.
Используя только силу логики, студенты должны выбрать, кто из них будет достоин получить место в подземном бункере - единственном месте, где можно спастись от приближающейся ядерной катастрофы. Бункер рассчитан на десять человек, а значит, тех, кого не выбирают, ожидает жестокая смерть. Реальность классной комнаты эффектно перетекает в воображаемый, но в то же время пугающий мир надвигающегося апокалипсиса...
--Сэмпл
Качество видео: DVDRip
Формат видео: AVI
Видео: Xvid 656x272 25fps 723Kbps
Аудио: Dolby AC3 48000Hz 6ch 224kbps--

MediaInfo

General
Complete name                  : D:\TORRENTS\Filosofy.Urok.vyjivaniya.2013.D.DVDRip.700MB.avi
Format                         : AVI
Format/Info                    : Audio Video Interleave
File size                      : 700 MiB
Duration                       : 1h 42mn
Overall bit rate               : 957 Kbps
Movie name                     : Философы: Урок выживания / The Philosophers, 2013
Director                       : Sergeich Ltd.
Genre                          : Thriller, Fantastic, Drama
Writing application            : VirtualDubMod 1.5.10.3 (build 2550/release)
Copyright                      : Sampo.ru
Comment                        : 14.11.2013
Video
ID                             : 0
Format                         : MPEG-4 Visual
Format profile                 : Advanced Simple@L5
Format settings, BVOP          : Yes
Format settings, QPel          : No
Format settings, GMC           : No warppoints
Format settings, Matrix        : Custom
Codec ID                       : XVID
Codec ID/Hint                  : XviD
Duration                       : 1h 42mn
Bit rate                       : 723 Kbps
Width                          : 656 pixels
Height                         : 272 pixels
Display aspect ratio           : 2.40:1
Frame rate                     : 25.000 fps
Color space                    : YUV
Chroma subsampling             : 4:2:0
Bit depth                      : 8 bits
Scan type                      : Progressive
Compression mode               : Lossy
Bits/(Pixel*Frame)             : 0.162
Stream size                    : 529 MiB (76%)
Writing library                : XviD 1.2.1 (UTC 2008-12-04)
Audio
ID                             : 1
Format                         : AC-3
Format/Info                    : Audio Coding 3
Mode extension                 : CM (complete main)
Format settings, Endianness    : Big
Codec ID                       : 2000
Duration                       : 1h 42mn
Bit rate mode                  : Constant
Bit rate                       : 224 Kbps
Channel count                  : 6 channels
Channel positions              : Front: L C R, Side: L R, LFE
Sampling rate                  : 48.0 KHz
Bit depth                      : 16 bits
Compression mode               : Lossy
Stream size                    : 164 MiB (23%)
Alignment                      : Split accross interleaves
Interleave, duration           : 40 ms (1.00 video frame)
Interleave, preload duration   : 500 ms
Title                          : Russian

Скриншоты

-

-
-
Скачать

Скачать торрент!

Как скачивать? · Что такое торрент? · Рейтинг и ограничения

Сайт не распространяет и не хранит электронные версии произведений, а лишь предоставляет доступ к создаваемому пользователями каталогу ссылок на торрент-файлы, которые содержат только списки хеш-сумм

[Профиль] [ЛС]
Показать сообщения:    
Ответить на тему

Текущее время: Сегодня 04:48

Часовой пояс: GMT + 4



Вы не можете начинать темы
Вы не можете отвечать на сообщения
Вы не можете редактировать свои сообщения
Вы не можете удалять свои сообщения
Вы не можете голосовать в опросах
Вы не можете прикреплять файлы к сообщениям
Вы не можете скачивать файлы