Королевы ринга / Les reines du ring (Жан-Марк Рудники / Jean-Marc Rudnicki) [2013, Франция, комедия, DVDRip] MVO

Ответить на тему
 
Автор Сообщение

user ®

Стаж: 7 лет 7 месяцев

Сообщений: 20008

Пост Пост: #1 от 15-Ноя-2013 14:15

[Цитировать]

Королевы ринга / Les reines du ring

Страна: Франция
Жанр: комедия
Год выпуска: 2013
Продолжительность: 01:33:26
Перевод: Профессиональный (многоголосый закадровый)
Cубтитры: нет
Режиссер: Жан-Марк Рудники / Jean-Marc Rudnicki
В ролях: Марилу Берри, Натали Бэй, Андре Дюссолье, Одри Флеро, Корина Масьеро, Изабель Нанти, Фрэнк Андриё, Вероник Барро, Биюна, Люси-Сериз Буве
Описание: Четырех кассирш из супермаркета заела повседневность: одной изменил муж, у другой проблемы с близким человеком, третья — роковая красотка в поисках приключений, а четвертая — просто гот. Они решили бросить вызов миру и стать королевами ринга. Они создали себе новые имена, костюмы, образы. И теперь их заметят!
Качество видео: DVDRip
Формат видео: AVI
Видео: XviD, 25,000fps, 1639 kb/s, 720x304
Аудио: AC3, 48 kHz, 448 kb/s, (6 ch)
- -

MediaInfo

Общее
Полное имя : C:\Раздачи\Korolevy.ringa.2013.P.DVDRip.1400MB.avi
Формат : AVI
Формат/Информация : Audio Video Interleave
Размер файла : 1,37 Гбайт
Продолжительность : 1 ч. 33 м.
Общий поток : 2097 Кбит/сек
Название фильма : Korolevy.ringa.2013.D.DVDRip.1400MB. СПАМ
Режиссёр : СПАМ
Жанр : Comedy
Программа кодирования : VirtualDubMod 1.5.10.2 (build 2540/release)
Формат оригинала/Имя : Movie
Правообладатель : http:// СПАМ
Видео
Идентификатор : 0
Формат : MPEG-4 Visual
Профиль формата : Advanced Simple@L5
Параметр BVOP формата : 1
Параметр QPel формата : Нет
Параметр GMC формата : Без точки перехода
Параметр матрицы формата : Default (MPEG)
Идентификатор кодека : XVID
Идентификатор кодека/Подсказка : XviD
Продолжительность : 1 ч. 33 м.
Битрейт : 1639 Кбит/сек
Ширина : 720 пикселей
Высота : 304 пикселя
Соотношение сторон : 2,35:1
Частота кадров : 25,000 кадров/сек
Цветовое пространство : YUV
Субдискретизация насыщенности : 4:2:0
Битовая глубина : 8 бит
Тип развёртки : Прогрессивная
Метод сжатия : С потерями
Бит/(Пиксели*Кадры) : 0.300
Размер потока : 1,07 Гбайт (78%)
Библиотека кодирования : XviD 1.2.1 (UTC 2008-12-04)
Аудио
Идентификатор : 1
Формат : AC-3
Формат/Информация : Audio Coding 3
Расширение режима : CM (complete main)
Параметр Endianness формата : Big
Идентификатор кодека : 2000
Продолжительность : 1 ч. 33 м.
Вид битрейта : Постоянный
Битрейт : 448 Кбит/сек
Каналы : 6 каналов
Расположение каналов : Front: L C R, Side: L R, LFE
Частота : 48,0 КГц
Битовая глубина : 16 бит
Метод сжатия : С потерями
Размер потока : 299 Мбайт (21%)
Выравнивание : Разделение по промежуткам
Продолжительность промежутка : 40 мс. (1,00 видеокадр)
Время предзагрузки промежутка : 500 мс.

Скриншот c названием фильма

Скриншоты



- -
Скачать

Скачать торрент!

Как скачивать? · Что такое торрент? · Рейтинг и ограничения

Сайт не распространяет и не хранит электронные версии произведений, а лишь предоставляет доступ к создаваемому пользователями каталогу ссылок на торрент-файлы, которые содержат только списки хеш-сумм

[Профиль] [ЛС]
Показать сообщения:    
Ответить на тему

Текущее время: Сегодня 23:52

Часовой пояс: GMT + 4



Вы не можете начинать темы
Вы не можете отвечать на сообщения
Вы не можете редактировать свои сообщения
Вы не можете удалять свои сообщения
Вы не можете голосовать в опросах
Вы не можете прикреплять файлы к сообщениям
Вы не можете скачивать файлы