11.6 / 11.6 (Филипп Годо / Philippe Godeau) [2013, Франция, триллер, HDRip] MVO (НТВ+)

Ответить на тему
 
Автор Сообщение

user ®

Стаж: 7 лет 7 месяцев

Сообщений: 20008

Пост Пост: #1 от 15-Ноя-2013 08:55

[Цитировать]

-11.6 / 11.6-
Страна: Франция
Жанр: триллер
Год выпуска: 2013
Продолжительность: 01:41:45
Перевод: Профессиональный (многоголосый закадровый) [НТВ+]
Cубтитры: нет
Режиссер: Филипп Годо / Philippe Godeau
В ролях: Франсуа Клюзе, Боли Ланнерс, Корина Масьеро, Хуана Акоста, Жоан Либеро, Мирей Франчино, Стефан Войтович, Жан-Клод Лека, Эрик Бернард, Карим Леклу
Описание: Тони мягко нажимает на педаль газа в своем бронированном фургоне. У него за спиной 11,6 миллиона евро! За несколько дней обычный охранник становится самым известным человеком в стране. Газеты и телевидение сходят с ума, рассказывая о совершенном ограблении века. Это его месть за унижения, которые он терпел годами от своего босса и системы.
Качество видео: HDRip
Формат видео: AVI
Видео: XviD, 1723 kb/s, 23,976fps, 720x304
Аудио: AC3, 48.0 KHz, 192 kb/s, (2 ch)
- -

MediaInfo

Общее
Полное имя : C:\Раздачи\11.6.2013.P.HDRip.avi
Формат : AVI
Формат/Информация : Audio Video Interleave
Размер файла : 1,37 Гбайт
Продолжительность : 1 ч. 41 м.
Общий поток : 1924 Кбит/сек
Программа кодирования : VirtualDubMod 1.5.10.2 (build 2540/release)
Библиотека кодирования : VirtualDubMod build 2540/release
Видео
Идентификатор : 0
Формат : MPEG-4 Visual
Профиль формата : Advanced Simple@L5
Параметр BVOP формата : 2
Параметр QPel формата : Нет
Параметр GMC формата : Без точки перехода
Параметр матрицы формата : Default (MPEG)
Идентификатор кодека : XVID
Идентификатор кодека/Подсказка : XviD
Продолжительность : 1 ч. 41 м.
Битрейт : 1723 Кбит/сек
Ширина : 720 пикселей
Высота : 304 пикселя
Соотношение сторон : 2,35:1
Частота кадров : 23,976 кадра/сек
Цветовое пространство : YUV
Субдискретизация насыщенности : 4:2:0
Битовая глубина : 8 бит
Тип развёртки : Прогрессивная
Метод сжатия : С потерями
Бит/(Пиксели*Кадры) : 0.328
Размер потока : 1,22 Гбайт (90%)
Библиотека кодирования : XviD 1.2.1 (UTC 2008-12-04)
Аудио
Идентификатор : 1
Формат : AC-3
Формат/Информация : Audio Coding 3
Расширение режима : CM (complete main)
Параметр Endianness формата : Big
Идентификатор кодека : 2000
Продолжительность : 1 ч. 41 м.
Вид битрейта : Постоянный
Битрейт : 192 Кбит/сек
Каналы : 2 канала
Расположение каналов : Front: L R
Частота : 48,0 КГц
Битовая глубина : 16 бит
Метод сжатия : С потерями
Размер потока : 140 Мбайт (10%)
Выравнивание : Разделение по промежуткам
Продолжительность промежутка : 42 мс. (1,00 видеокадр)
Время предзагрузки промежутка : 500 мс.

Скриншот c названием фильма

Скриншоты


- -
Скачать

Скачать торрент!

Как скачивать? · Что такое торрент? · Рейтинг и ограничения

Сайт не распространяет и не хранит электронные версии произведений, а лишь предоставляет доступ к создаваемому пользователями каталогу ссылок на торрент-файлы, которые содержат только списки хеш-сумм

[Профиль] [ЛС]
Показать сообщения:    
Ответить на тему

Текущее время: Сегодня 00:03

Часовой пояс: GMT + 4



Вы не можете начинать темы
Вы не можете отвечать на сообщения
Вы не можете редактировать свои сообщения
Вы не можете удалять свои сообщения
Вы не можете голосовать в опросах
Вы не можете прикреплять файлы к сообщениям
Вы не можете скачивать файлы