Смурфики 2 / The Smurfs 2 (Раджа Госнелл / Raja Gosnell) [2013, мультфильм, фэнтези, комедия, семейный, BDRip-AVC] Dub + Original + Sub Rus, Eng

Ответить на тему
 
Автор Сообщение

user ®

Стаж: 13 лет

Сообщений: 15041

Пост Пост: #1 от 14-Ноя-2013 23:25

[Цитировать]

Смурфики 2 / The Smurfs 2 Страна: США
Жанр: мультфильм, фэнтези, комедия, семейный
Продолжительность: 01:44:54
Год выпуска: 2013
Перевод: Профессиональный (дублированный)
Cубтитры: Русские, английские
Формат субтитров: softsub (SRT)
Режиссёр: Раджа Госнелл / Raja Gosnell
Роли озвучивали: Хэнк Азария, Нил Патрик Харрис, Брендан Глисон, Джейма Мейс, Джонатан Уинтерс, Кэти Перри, Кристина Риччи, Дж.Б. Смув, Джордж Лопес, Антон Ельчин
Роли дублировали: Сергей Паршин, Нюша Шурочкина, Валерий Смекалов...
Описание: Гаргамел создаёт Хакуса и Векси, как две капли воды похожую на смурфиков злобную парочку, надеясь всё-таки обрести магическую силу. Когда он узнаёт, что лишь настоящий смурф может дать ему то, что он хочет, и лишь Смурфетта способна превратить Хакуса и Векси в настоящих смурфов, Гаргамел похищает Смурфетту и берёт её с собой в Париж, планируя сделать её своей прислужницей. Но смурфики — Папа, Растяпа, Смельчак, Ворчун, Красавчик, Благоразумник — и их друзья из Нью-Йорка этого так не оставят. Тем более что к ним присоединился новорождённый Голубчик.
Качество видео: BDRip-AVC [Blu-Ray (1080p)]
Формат видео: MKV

Автор: nnlabetik

Семпл
Видео: 1024x552 (1.85:1), 23.976 fps, MPEG-4 AVC ~2070 kbps avg, 0.153 bit/pixel
Аудио 1: 48 kHz, AC3 Dolby Digital, 3/2 (L,C,R,l,r) + LFE ch, ~448 kbps - Rus
Аудио 2: 48 kHz, AC3 Dolby Digital, 3/2 (L,C,R,l,r) + LFE ch, ~448 kbps - Eng

x264|MediaInfo

x264 [info]


crop(0, 22, 0, -22)
x264 [info]: frame I:1521 Avg QP:17.47 size: 76350
x264 [info]: frame P:40281 Avg QP:20.90 size: 20181
x264 [info]: frame B:109114 Avg QP:23.44 size: 6445
x264 [info]: consecutive B-frames: 4.5% 5.4% 10.1% 42.6% 13.9% 17.5% 2.7% 2.8% 0.5%
x264 [info]: mb I I16..4: 3.4% 74.4% 22.1%
x264 [info]: mb P I16..4: 1.0% 10.1% 2.0% P16..4: 32.0% 35.3% 11.1% 0.0% 0.0% skip: 8.5%
x264 [info]: mb B I16..4: 0.2% 1.4% 0.2% B16..8: 35.9% 18.9% 3.1% direct: 3.6% skip:36.8% L0:41.7% L1:47.1% BI:11.3%
x264 [info]: 8x8 transform intra:77.3% inter:65.6%
x264 [info]: direct mvs spatial:95.9% temporal:4.1%
x264 [info]: coded y,uvDC,uvAC intra: 84.9% 75.7% 46.0% inter: 17.4% 12.9% 2.8%
x264 [info]: i16 v,h,dc,p: 17% 15% 2% 66%
x264 [info]: i8 v,h,dc,ddl,ddr,vr,hd,vl,hu: 10% 7% 3% 10% 14% 14% 15% 12% 14%
x264 [info]: i4 v,h,dc,ddl,ddr,vr,hd,vl,hu: 13% 8% 3% 8% 15% 14% 15% 11% 13%
x264 [info]: i8c dc,h,v,p: 31% 28% 20% 21%
x264 [info]: Weighted P-Frames: Y:3.5% UV:1.8%
x264 [info]: ref P L0: 51.3% 12.5% 14.8% 6.4% 5.2% 3.8% 3.3% 2.3% 0.4% 0.0%
x264 [info]: ref B L0: 76.4% 10.1% 5.6% 3.3% 2.6% 1.4% 0.7%
x264 [info]: ref B L1: 93.7% 6.3%
x264 [info]: kb/s:2074.50
Уникальный идентификатор : 173884891214743637516630667315779727302 (0x82D1030B01B838FB84C71F4A612FEFC6)
Полное имя : C:\Smurfs2\Smurfs_2.2013.x264.(AVC).mkv
Формат : Matroska
Версия формата : Version 4 / Version 2
Размер файла : 2,18 Гбайт
Продолжительность : 1 ч. 44 м.
Общий поток : 2973 Кбит/сек
Название фильма : Смурфики 2 / The Smurfs 2 / 2013 -=NN@LIFE=-
Дата кодирования : UTC 2013-11-14 15:44:50
Программа кодирования : mkvmerge v6.5.0 ('Isn't she lovely') built on Oct 20 2013 12:50:05
Библиотека кодирования : libebml v1.3.0 + libmatroska v1.4.1
Видео
Идентификатор : 1
Формат : AVC
Формат/Информация : Advanced Video Codec
Профиль формата : High@L4.1
Параметр CABAC формата : Да
Параметр ReFrames формата : 8 кадров
Идентификатор кодека : V_MPEG4/ISO/AVC
Продолжительность : 1 ч. 44 м.
Битрейт : 2074 Кбит/сек
Ширина : 1024 пикселя
Высота : 552 пикселя
Соотношение сторон : 1,85:1
Режим частоты кадров : Постоянный
Частота кадров : 23,976 кадра/сек
Цветовое пространство : YUV
Субдискретизация насыщенности : 4:2:0
Битовая глубина : 8 бит
Тип развёртки : Прогрессивная
Бит/(Пиксели*Кадры) : 0.153
Размер потока : 1,48 Гбайт (68%)
Заголовок : Rip by nnlabetik
Библиотека кодирования : x264 core 133 r2334 a3ac64b
Настройки программы : cabac=1 / ref=8 / deblock=1:-2:-1 / analyse=0x3:0x113 / me=umh / subme=11 / psy=1 / psy_rd=1.00:0.00 / mixed_ref=1 / me_range=32 / chroma_me=1 / trellis=2 / 8x8dct=1 / cqm=0 / deadzone=21,11 / fast_pskip=1 / chroma_qp_offset=-2 / threads=6 / lookahead_threads=1 / sliced_threads=0 / nr=0 / decimate=1 / interlaced=0 / bluray_compat=0 / constrained_intra=0 / bframes=8 / b_pyramid=2 / b_adapt=2 / b_bias=0 / direct=3 / weightb=1 / open_gop=0 / weightp=2 / keyint=230 / keyint_min=23 / scenecut=40 / intra_refresh=0 / rc_lookahead=50 / rc=2pass / mbtree=0 / bitrate=2074 / ratetol=1.0 / qcomp=0.60 / qpmin=0 / qpmax=69 / qpstep=4 / cplxblur=20.0 / qblur=0.5 / vbv_maxrate=50000 / vbv_bufsize=62500 / nal_hrd=none / ip_ratio=1.40 / pb_ratio=1.30 / aq=1:1.00
Язык : English
Default : Да
Forced : Нет
Аудио #1
Идентификатор : 2
Формат : AC-3
Формат/Информация : Audio Coding 3
Расширение режима : CM (complete main)
Параметр Endianness формата : Big
Идентификатор кодека : A_AC3
Продолжительность : 1 ч. 44 м.
Вид битрейта : Постоянный
Битрейт : 448 Кбит/сек
Каналы : 6 каналов
Расположение каналов : Front: L C R, Side: L R, LFE
Частота : 48,0 КГц
Битовая глубина : 16 бит
Метод сжатия : С потерями
Размер потока : 336 Мбайт (15%)
Заголовок : Dub
Язык : Russian
Default : Да
Forced : Нет
Аудио #2
Идентификатор : 3
Формат : AC-3
Формат/Информация : Audio Coding 3
Расширение режима : CM (complete main)
Параметр Endianness формата : Big
Идентификатор кодека : A_AC3
Продолжительность : 1 ч. 44 м.
Вид битрейта : Постоянный
Битрейт : 448 Кбит/сек
Каналы : 6 каналов
Расположение каналов : Front: L C R, Side: L R, LFE
Частота : 48,0 КГц
Битовая глубина : 16 бит
Метод сжатия : С потерями
Размер потока : 336 Мбайт (15%)
Заголовок : Org
Язык : English
Default : Нет
Forced : Нет
Текст #1
Идентификатор : 4
Формат : UTF-8
Идентификатор кодека : S_TEXT/UTF8
Идентификатор кодека/Информация : UTF-8 Plain Text
Язык : Russian
Default : Нет
Forced : Нет
Текст #2
Идентификатор : 5
Формат : UTF-8
Идентификатор кодека : S_TEXT/UTF8
Идентификатор кодека/Информация : UTF-8 Plain Text
Язык : English
Default : Нет
Forced : Нет
Меню
00:00:00.000 : en:00:00:00.000
00:05:00.133 : en:00:05:00.133
00:11:12.755 : en:00:11:12.755
00:18:14.093 : en:00:18:14.093
00:23:18.522 : en:00:23:18.522
00:27:54.590 : en:00:27:54.590
00:34:25.480 : en:00:34:25.480
00:41:09.342 : en:00:41:09.342
00:46:10.434 : en:00:46:10.434
00:50:59.098 : en:00:50:59.098
00:56:47.863 : en:00:56:47.863
01:02:33.875 : en:01:02:33.875
01:07:06.773 : en:01:07:06.773
01:14:10.196 : en:01:14:10.196
01:21:05.819 : en:01:21:05.819
01:28:24.591 : en:01:28:24.591

Скриншоты

Скачать

Скачать торрент! Смурфики 2 / The Smurfs 2 (Раджа Госнелл / Raja Gosnell) [2013, мультфильм, фэнтези, комедия, семейный, BDRip-AVC] Dub + Original + Sub Rus, Eng

Как скачивать? · Что такое торрент? · Рейтинг и ограничения

Сайт не распространяет и не хранит электронные версии произведений, а лишь предоставляет доступ к создаваемому пользователями каталогу ссылок на торрент-файлы, которые содержат только списки хеш-сумм

[Профиль] [ЛС]
Показать сообщения:    
Ответить на тему

Текущее время: Сегодня 23:49

Часовой пояс: GMT + 4



Вы не можете начинать темы
Вы не можете отвечать на сообщения
Вы не можете редактировать свои сообщения
Вы не можете удалять свои сообщения
Вы не можете голосовать в опросах
Вы не можете прикреплять файлы к сообщениям
Вы не можете скачивать файлы