Маска / Ek-Saal (Девендра Гоэл / Devendra Goel) [1957, Индия, Драма, мелодрама, DVDRip] Dub

Ответить на тему
 
Автор Сообщение

user ®

Стаж: 12 лет

Сообщений: 15092

Пост Пост: #1 от 14-Ноя-2013 23:25

[Цитировать]

Маска / Ek-Saal-- Страна: Индия
Жанр: Драма, мелодрама
Год выпуска: 1957
Продолжительность: 02:14:17
Перевод: Профессиональный (полное дублирование) (ZEE TV)
Cубтитры: нет
Оригинальная аудиодорожка: хинди-Режиссер: Девендра Гоэл / Devendra Goel-В ролях: Aшок Кумар, Maдхубала, Mехмуд, Кулдип Каур, Джонни Уолкер, Мину Мумтаз, Пратима Деви, Maдан Пури, Шилаваз, Мулчанд-Описание: Уша Сингх живет в Бомбее со своим овдовевшим отцом, полковником в отставке, и ведет богатый образ жизни. На дне рождения ее бабушки в Лакхнау с ней флиртует молодой человек, от которого она сбегает только затем, чтобы снова столкнуться с ним в такси, а затем в собственном доме в Бомбее. Выясняется, что он новый менеджер ее отца и зовут его Суреш. Они влюбляются. Но у Уши на медосмотре, куда ее привел Суреш, находят рак мозга и она не знает, что проживет не больше года. Кажется, Суреш заботится об Уше. Но на самом деле он любит другую девушку из Лакхнау - Раджани. А здесь он - чтобы завоевать доверие полковника Сингха и его дочери и отобрать их деньги и ценности.-Большое спасибо reza74 за DVD9 (без перевода)
Рип, сведение и синхронизация звука: pca1962-
Сэмпл: http://multi-up.com/923333
Исходник: DVD9
Качество видео: DVDRip
Формат видео: AVI
Видео: XviD, 640x480, 23.97 fps, 1596 kbps
Аудио: AC3, 48 kHz, 2.0 (stereo), 192 kbps (русский)
Аудио 2: AC3, 48 kHz, 5.1 (6 ch), 384 kbps (хинди)

MediaInfo

=== Общие ===
Полное имя : Maska.1957.DVDRip.XviD.pca1962.avi
Формат : AVI
Описание формата : Audio Video Interleave
Профиль формата : OpenDML
Размер файла : 2.06 Гб
Длительность : 2ч 14мин
Общий битрейт : 2 191 кбит/сек
Програмное обеспечение : VirtualDubMod 1.5.10.2 (build 2540/release)
Кодирующая библиотека : VirtualDubMod build 2540/release
=== Видео ===
ID (Идентификатор) : 0
Формат : MPEG-4 Visual
Профиль формата : Advanced Simple@L5
Параметр 'BVOP' : 2
Параметр 'QPel' : Нет
Параметр 'GMC' : No warppoints
Параметр 'Matrix' : Default (MPEG)
Идентификатор кодека : XVID
Подпись кодека : XviD
Длительность : 2ч 14мин
Битрейт : 1596 кбит/сек
Ширина кадра : 640 пикселей
Высота кадра : 480 пикселей
Соотношение сторон : 4:3
Частота кадров : 23.976 кадров/сек
Цветовое пространство : YUV
Субдискретизация насыщенности : 4:2:0
Глубина (разрядность) : 8 bits
Тип развертки : Прогрессивная
Режим сжатия : С потерями
Бит/(пиксель*кадр) : 0.217
Размер потока : 1.50 Гб (73%)
Кодирующая библиотека : XviD 1.2.1 (UTC 2008-12-04)
=== Аудио 1 ===
ID (Идентификатор) : 1
Формат : AC-3
Описание формата : Audio Coding 3
Mode extension : CM (complete main)
Идентификатор кодека : 2000
Длительность : 2ч 14мин
Тип битрейта : Постоянный
Битрейт : 192 кбит/сек
Канал(ы) : 2 каналов
Расположение каналов : Front: L R
Частота дискретизации : 48.0 кГц
Глубина (разрядность) : 16 bits
Режим сжатия : С потерями
Размер потока : 184 Мб (9%)
Расположение потока : Split accross interleaves
Период чередования : 42 мс (1.00 video frame)
Предварительная загрузка : 500 мс
=== Аудио 2 ===
ID (Идентификатор) : 2
Формат : AC-3
Описание формата : Audio Coding 3
Mode extension : CM (complete main)
Идентификатор кодека : 2000
Длительность : 2ч 14мин
Тип битрейта : Постоянный
Битрейт : 384 кбит/сек
Канал(ы) : 6 каналов
Расположение каналов : Front: L C R, Side: L R, LFE
Частота дискретизации : 48.0 кГц
Глубина (разрядность) : 16 bits
Режим сжатия : С потерями
Размер потока : 369 Мб (18%)
Расположение потока : Split accross interleaves
Период чередования : 42 мс (1.00 video frame)
Предварительная загрузка : 500 мс

Скриншот c названием фильма

Скачать

Скачать торрент! Маска / Ek-Saal (Девендра Гоэл / Devendra Goel) [1957, Индия, Драма, мелодрама, DVDRip] Dub

Как скачивать? · Что такое торрент? · Рейтинг и ограничения

Сайт не распространяет и не хранит электронные версии произведений, а лишь предоставляет доступ к создаваемому пользователями каталогу ссылок на торрент-файлы, которые содержат только списки хеш-сумм

[Профиль] [ЛС]
Показать сообщения:    
Ответить на тему

Текущее время: Сегодня 14:36

Часовой пояс: GMT + 4



Вы не можете начинать темы
Вы не можете отвечать на сообщения
Вы не можете редактировать свои сообщения
Вы не можете удалять свои сообщения
Вы не можете голосовать в опросах
Вы не можете прикреплять файлы к сообщениям
Вы не можете скачивать файлы