Лохматый спецназ! / Good Boy! (Джон Роберт Хоффман / John Hoffman) [2003, США, комедия, семейный, HDTV 1080i] DVO (НТВ+) + Dub + MVO + Sub Rus + Sub Eng + Original Eng

Ответить на тему
 
Автор Сообщение

user ®

Стаж: 7 лет 7 месяцев

Сообщений: 20008

Пост Пост: #1 от 14-Ноя-2013 23:25

[Цитировать]

Лохматый спецназ! / Good Boy!
Страна: США
Студия: Metro-Goldwyn-Mayer (MGM), Jim Henson Pictures
Жанр: комедия, семейный
Год выпуска: 2003
Продолжительность: 01:24:04
Перевод 1: Профессиональный (двухголосый закадровый) НТВ+
Перевод 2: Профессиональный (дублированный)
Перевод 3: Профессиональный (многоголосый закадровый)
Cубтитры: русские, английские
Оригинальная аудиодорожка: английский
Режиссер: Джон Роберт Хоффман / John Hoffman
В ролях: Бриттани Мерфи, Лайам Эйкен, Молли Шеннон, Кевин Нилон
Описание: Родители двенадцатилетнего мальчика Оуэна позволяют ему, наконец, приютить лохматую собачонку, которую он называет Хаббл. Дальше происходит нечто невероятное - однажды Оуэн просыпается и обнаруживает, что понимает каждое слово, которое произносит Хаббл, включая зловещую фразу: "Отведи меня к вашим вожакам". Оуэн узнаёт, что собаки прибыли на землю несколько тысячелетий тому назад, чтобы править планетой Земля. И Хаббл (которого на самом деле зовут Кэнид 3942) послан Великой Догиней с собачей звезды Сириус с миссией: проверить, выполнили ли собаки свою задачу. Несмотря на все попытки разношёрстной команды соседских собак убедить Хаббла в том, что собаки - хозяева земли, он быстро убеждается в обратном: "Все вы всего лишь домашние животные!". Теперь Оуэн (мальчик, у которого никогда не было друга) и Хаббл (собака, которой друг никогда не был нужен), должны вместе подготовить соседских собак к визиту Великой Догини - иначе все собаки исчезнут с нашей планеты! Судьба земных собак висит на волоске, и спасти лучшего друга человека могут только Оуэн, Хаббл и их приятели-собаки. Комедия "Лохматый спецназ" - это увлекательное и очень смешное зрелище, которое без сомнений, понравится не только детям, но и их родителям, а также всем любителям собак на планете Земля!

IMDB
Доп. информация:
За многоголоску спасибо [:|||||||:]
За дубляж и оригинальную дорогу спасибо Ibraghim
Тип релиза: HDTV 1080i
Контейнер: MKV
Видео: AVC 1920x1080 (16:9)) 25.0fps Bit rate 7439Kbps
Аудио 1: MP2 48.0 KHz 2ch. 192kbps rus DVO
Аудио 2: AC3 48.0 KHz 6ch. 448kbps rus Dub
Аудио 3: AC3 48.0 KHz 6ch. 384kbps rus MVO
Аудио 4: AC3 48.0 KHz 6ch. 448kbps eng
Формат субтитров: softsub (SRT)

MediaInfo

Общее
Уникальный идентификатор : 189712311008129336315251271687170629849 (0x8EB943164B8AEB6D821184E0F2F720D9)
Полное имя : E:\torrent\Lochmatyi.Spetznaz_HDTV1080i.mkv
Формат : Matroska
Версия формата : Version 4 / Version 2
Размер файла : 5,34 Гбайт
Продолжительность : 1 ч. 24 м.
Общий поток : 9092 Кбит/сек
Дата кодирования : UTC 2013-11-14 00:10:09
Программа кодирования : mkvmerge v6.4.1 ('Omega Point') built on Sep 16 2013 22:05:10
Библиотека кодирования : libebml v1.3.0 + libmatroska v1.4.1
Видео
Идентификатор : 1
Формат : AVC
Формат/Информация : Advanced Video Codec
Профиль формата : High@L4.0
Параметр CABAC формата : Да
Параметр ReFrames формата : 3 кадра
Идентификатор кодека : V_MPEG4/ISO/AVC
Продолжительность : 1 ч. 24 м.
Битрейт : 7439 Кбит/сек
Ширина : 1920 пикселей
Высота : 1080 пикселей
Соотношение сторон : 16:9
Режим частоты кадров : Постоянный
Частота кадров : 25,000 кадров/сек
Стандарт вещания : Component
Цветовое пространство : YUV
Субдискретизация насыщенности : 4:2:0
Битовая глубина : 8 бит
Тип развёртки : Чересстрочная
Порядок развёртки : Верхнее поле первое
Бит/(Пиксели*Кадры) : 0.143
Размер потока : 4,37 Гбайт (82%)
Заголовок : Lochmatyi.Spetzna_HDTV1080i
Default : Да
Forced : Нет
Основные цвета : BT.709
Характеристики трансфера : BT.709
Коэффициенты матрицы : BT.709
Аудио #1
Идентификатор : 2
Формат : MPEG Audio
Версия формата : Version 1
Профиль формата : Layer 2
Идентификатор кодека : A_MPEG/L2
Идентификатор кодека/Подсказка : MP2
Продолжительность : 1 ч. 24 м.
Вид битрейта : Постоянный
Битрейт : 192 Кбит/сек
Каналы : 2 канала
Частота : 48,0 КГц
Метод сжатия : С потерями
Размер потока : 115 Мбайт (2%)
Заголовок : Lochmatyi.Spetzna_MP2_2ch_DVO_NTV+
Язык : Russian
Default : Да
Forced : Нет
Аудио #2
Идентификатор : 3
Формат : AC-3
Формат/Информация : Audio Coding 3
Расширение режима : CM (complete main)
Параметр Endianness формата : Big
Идентификатор кодека : A_AC3
Продолжительность : 1 ч. 24 м.
Вид битрейта : Постоянный
Битрейт : 448 Кбит/сек
Каналы : 6 каналов
Расположение каналов : Front: L C R, Side: L R, LFE
Частота : 48,0 КГц
Битовая глубина : 16 бит
Метод сжатия : С потерями
Размер потока : 269 Мбайт (5%)
Заголовок : Lochmatyi.Spetzna_AC3_6ch_Dub
Язык : Russian
Default : Нет
Forced : Нет
Аудио #3
Идентификатор : 4
Формат : AC-3
Формат/Информация : Audio Coding 3
Расширение режима : CM (complete main)
Параметр Endianness формата : Big
Идентификатор кодека : A_AC3
Продолжительность : 1 ч. 24 м.
Вид битрейта : Постоянный
Битрейт : 384 Кбит/сек
Каналы : 6 каналов
Расположение каналов : Front: L C R, Side: L R, LFE
Частота : 48,0 КГц
Битовая глубина : 16 бит
Метод сжатия : С потерями
Размер потока : 231 Мбайт (4%)
Заголовок : Lochmatyi.Spetzna_AC3_6ch_MVO
Язык : Russian
Default : Нет
Forced : Нет
Аудио #4
Идентификатор : 5
Формат : AC-3
Формат/Информация : Audio Coding 3
Расширение режима : CM (complete main)
Параметр Endianness формата : Big
Идентификатор кодека : A_AC3
Продолжительность : 1 ч. 24 м.
Вид битрейта : Постоянный
Битрейт : 448 Кбит/сек
Каналы : 6 каналов
Расположение каналов : Front: L C R, Side: L R, LFE
Частота : 48,0 КГц
Битовая глубина : 16 бит
Метод сжатия : С потерями
Размер потока : 269 Мбайт (5%)
Заголовок : Lochmatyi.Spetzna_AC3_2ch_original eng
Язык : English
Default : Нет
Forced : Нет
Текст #1
Идентификатор : 6
Формат : UTF-8
Идентификатор кодека : S_TEXT/UTF8
Идентификатор кодека/Информация : UTF-8 Plain Text
Заголовок : Lochmatyi.Spetzna_subtitle rus
Язык : Russian
Default : Нет
Forced : Нет
Текст #2
Идентификатор : 7
Формат : UTF-8
Идентификатор кодека : S_TEXT/UTF8
Идентификатор кодека/Информация : UTF-8 Plain Text
Заголовок : Lochmatyi.Spetzna_subtitle eng
Язык : English
Default : Нет
Forced : Нет

Скриншот с названием фильма

Скриншоты

Сравнение с DVD


Скачать

Скачать торрент!

Как скачивать? · Что такое торрент? · Рейтинг и ограничения

Сайт не распространяет и не хранит электронные версии произведений, а лишь предоставляет доступ к создаваемому пользователями каталогу ссылок на торрент-файлы, которые содержат только списки хеш-сумм

[Профиль] [ЛС]
Показать сообщения:    
Ответить на тему

Текущее время: Сегодня 16:09

Часовой пояс: GMT + 4



Вы не можете начинать темы
Вы не можете отвечать на сообщения
Вы не можете редактировать свои сообщения
Вы не можете удалять свои сообщения
Вы не можете голосовать в опросах
Вы не можете прикреплять файлы к сообщениям
Вы не можете скачивать файлы