Глубоко в сердце / Deep in the Heart (Кристофер Кэйн / Christopher Kane) [2011, США, драма, HDTV 1080i] DVO

Ответить на тему
 
Автор Сообщение

user ®

Стаж: 7 лет 7 месяцев

Сообщений: 20008

Пост Пост: #1 от 14-Ноя-2013 23:25

[Цитировать]

Глубоко в сердце / Deep in the Heart Страна: США
Жанр: драма
Год выпуска: 2011
Продолжительность: 01:48:08
Перевод: Профессиональный (двухголосый закадровый)
Cубтитры: нет
Режиссер: Кристофер Кэйн / Christopher Kane
В ролях: Джон Грайз, Элэйн Хендрикс, Вэл Килмер, Риган Уоллес, Джеймс Хейвен, Донни Боаз, Кэтерин Уиллис, Тара Хэзлвуд, Д.Б. Суини, Бо Смит
Описание: В основу фильма положена реальная история Дика Воллрейса. После нескольких лет алкогольной зависимости, и как следствие потеря семьи, работы и надежд на будущее, к главному герою фильма приходит осознание того, что мерилом успеха является крепкая семья и любовь детей. С помощью сыновей он строит успешный бизнес и становится меценатом колледжа по программам 4Н и FFA предоставления стипендий для учащихся…
Сэмпл: http://multi-up.com/923346

Качество видео: HDTV 1080i
Формат видео: TS
Видео: AVC/H.264, PAL, 1920x1080 (16:9), 8027 Кбит/сек, 25.000 fps, 0.155 bit/pixe
Аудио: Русский, Mp-2, 2 ch, 48,0 КГц, 192 Кбит/сек

MediaInfo

Видео
Идентификатор : 4096 (0x1000)
Идентификатор меню : 1 (0x1)
Формат : AVC
Формат/Информация : Advanced Video Codec
Профиль формата : High@L4.1
Параметр CABAC формата : Да
Параметр ReFrames формата : 3 кадра
Идентификатор кодека : 27
Продолжительность : 1 ч. 48 м.
Вид битрейта : Постоянный
Битрейт : 8027 Кбит/сек
Ширина : 1920 пикселей
Высота : 1080 пикселей
Соотношение сторон : 16:9
Частота кадров : 25,000 кадров/сек
Стандарт вещания : PAL
Цветовое пространство : YUV
Субдискретизация насыщенности : 4:2:0
Битовая глубина : 8 бит
Тип развёртки : Прогрессивная
Бит/(Пиксели*Кадры) : 0.155
Размер потока : 5,96 Гбайт (93%)
Основные цвета : BT.709
Характеристики трансфера : BT.709
Коэффициенты матрицы : BT.709
Аудио
Идентификатор : 4097 (0x1001)
Идентификатор меню : 1 (0x1)
Формат : MPEG Audio
Версия формата : Version 1
Профиль формата : Layer 2
Идентификатор кодека : 3
Продолжительность : 1 ч. 48 м.
Вид битрейта : Постоянный
Битрейт : 192 Кбит/сек
Каналы : 2 канала
Частота : 48,0 КГц
Метод сжатия : С потерями
Задержка видео : 8 мс.
Размер потока : 149 Мбайт (2%)

Скриншот c названием фильма

Скриншоты

Скачать

Скачать торрент!

Как скачивать? · Что такое торрент? · Рейтинг и ограничения

Сайт не распространяет и не хранит электронные версии произведений, а лишь предоставляет доступ к создаваемому пользователями каталогу ссылок на торрент-файлы, которые содержат только списки хеш-сумм

[Профиль] [ЛС]
Показать сообщения:    
Ответить на тему

Текущее время: Сегодня 20:19

Часовой пояс: GMT + 4



Вы не можете начинать темы
Вы не можете отвечать на сообщения
Вы не можете редактировать свои сообщения
Вы не можете удалять свои сообщения
Вы не можете голосовать в опросах
Вы не можете прикреплять файлы к сообщениям
Вы не можете скачивать файлы