Вещественное доказательство / Physical Evidence (Майкл Крайтон / Michael Crichton) [1989, США, триллер, детектив, криминал, BDRip 720p] MVO + AVO (Гаврилов) + Original eng + Sub rus, eng

Ответить на тему
 
Автор Сообщение

user ®

Стаж: 7 лет 7 месяцев

Сообщений: 20008

Пост Пост: #1 от 14-Ноя-2013 23:25

[Цитировать]

Вещественное доказательство / Physical Evidence
Страна: США
Жанр: триллер, детектив, криминал
Год выпуска: 1989
Продолжительность: 01:39:22
Перевод#1: Профессиональный (многоголосый закадровый) | R5
Перевод#2: Авторский (одноголосый закадровый), А. Гаврилов
Cубтитры: русские, английские
Оригинальная аудиодорожка: английский
Режиссер: Майкл Крайтон / Michael Crichton
В ролях: Берт Рейнолдс, Тереза Расселл, Нед Битти, Кэй Ленц, Тед МакГинли, Том О’Брайен, Кеннет Уэлш, Рэй Бэйкер, Кен Джеймс, Майкл П. Моран
Описание: Бывший полицейский детектив из Бостона Джо Пэрис обвинен в убийстве Джека Флаэрти, личности с темным прошлым. У Джо нет алиби, и он был смертельно пьян в ночь убийства. За это, казалось бы, безнадежное дело берется адвокат-дебютантка Дженни Хадсон...

Доп. информация: за работу над дорогами благодарим Linger babe
Тип релиза: BDRip 720p (от EbP) | sample
Контейнер: MKV
Видео кодек: x264
Видео: AVC 1280x720 (16:9), 23.976 fps, ~9540 Kbps, 0.43 bit/pixel
Аудио #1: Russian AC3 6ch 48kHz 384Kbps | MVO R5*
Аудио #2: Russian AC3 6ch 48kHz 384Kbps | AVO Гаврилов
Аудио #3: English FLAC 2ch 48kHz ~1164Kbps | Original
Формат субтитров: softsub (SRT)
Главы: есть

MediaInfo | x264

x264

x264 [info]: frame I:925 Avg QP:14.44 size:163691
x264 [info]: frame P:28360 Avg QP:15.43 size: 81858
x264 [info]: frame B:113666 Avg QP:17.64 size: 40147
x264 [info]: consecutive B-frames: 1.1% 1.6% 7.0% 10.9% 16.9% 53.2% 6.6% 1.3% 0.9% 0.4% 0.1%
General
Complete name : E:\...\Physical.Evidence.1989.720p.BluRay.x264.Rus.Eng-EbP.mkv
Format : Matroska
Format version : Version 4 / Version 2
File size : 7.96 GiB
Duration : 1h 39mn
Overall bit rate mode : Variable
Overall bit rate : 11.5 Mbps
Movie name : Physical.Evidence.1989.720p.BluRay.x264.Rus.Eng-EbP
Encoded date : UTC 2013-11-13 03:16:47
Writing application : mkvmerge v6.2.0 ('Promised Land') built on Apr 28 2013 12:22:01
Writing library : libebml v1.3.0 + libmatroska v1.4.0
Video
ID : 1
Format : AVC
Format/Info : Advanced Video Codec
Format profile : High@L4.1
Format settings, CABAC : Yes
Format settings, ReFrames : 9 frames
Codec ID : V_MPEG4/ISO/AVC
Duration : 1h 39mn
Nominal bit rate : 9 542 Kbps
Width : 1 280 pixels
Height : 720 pixels
Display aspect ratio : 16:9
Frame rate mode : Constant
Frame rate : 23.976 fps
Color space : YUV
Chroma subsampling : 4:2:0
Bit depth : 8 bits
Scan type : Progressive
Bits/(Pixel*Frame) : 0.432
Title : EbP
Writing library : x264 core 138 r2359+704+48 3f879a0 tMod [8-bit@all X86_64]
Encoding settings : cabac=1 / ref=9 / deblock=1:-3:-3 / analyse=0x3:0x133 / me=umh / subme=9 / psy=1 / fade_compensate=0.00 / psy_rd=1.13:0.06 / mixed_ref=1 / me_range=16 / chroma_me=1 / trellis=2 / 8x8dct=1 / cqm=0 / deadzone=21,11 / fast_pskip=0 / chroma_qp_offset=-3 / threads=12 / lookahead_threads=3 / sliced_threads=0 / nr=0 / decimate=0 / interlaced=0 / bluray_compat=0 / constrained_intra=0 / fgo=0 / bframes=10 / b_pyramid=2 / b_adapt=2 / b_bias=0 / direct=3 / weightb=1 / open_gop=0 / weightp=2 / keyint=250 / keyint_min=23 / scenecut=40 / intra_refresh=0 / rc=2pass / mbtree=0 / bitrate=9542 / ratetol=1.0 / qcomp=0.80 / qpmin=0:0:0 / qpmax=69:69:69 / qpstep=4 / cplxblur=20.0 / qblur=0.5 / ip_ratio=1.40 / pb_ratio=1.30 / aq=3:0.60 / aq-sensitivity=10.00 / aq-factor=1.00:1.00:1.00 / aq2=0 / aq3=0
Language : English
Default : Yes
Forced : No
Matrix coefficients : BT.709
Audio #1
ID : 2
Format : AC-3
Format/Info : Audio Coding 3
Mode extension : CM (complete main)
Format settings, Endianness : Big
Codec ID : A_AC3
Duration : 1h 39mn
Bit rate mode : Constant
Bit rate : 384 Kbps
Channel(s) : 6 channels
Channel positions : Front: L C R, Side: L R, LFE
Sampling rate : 48.0 KHz
Bit depth : 16 bits
Compression mode : Lossy
Stream size : 273 MiB (3%)
Title : MVO R5
Language : Russian
Default : Yes
Forced : No
Audio #2
ID : 3
Format : AC-3
Format/Info : Audio Coding 3
Mode extension : CM (complete main)
Format settings, Endianness : Big
Codec ID : A_AC3
Duration : 1h 39mn
Bit rate mode : Constant
Bit rate : 384 Kbps
Channel(s) : 6 channels
Channel positions : Front: L C R, Side: L R, LFE
Sampling rate : 48.0 KHz
Bit depth : 16 bits
Compression mode : Lossy
Stream size : 273 MiB (3%)
Title : AVO Gavrilov
Language : Russian
Default : No
Forced : No
Audio #3
ID : 4
Format : FLAC
Format/Info : Free Lossless Audio Codec
Codec ID : A_FLAC
Duration : 1h 39mn
Bit rate mode : Variable
Channel(s) : 2 channels
Sampling rate : 48.0 KHz
Bit depth : 24 bits
Title : Original FLAC 2.0
Writing library : libFLAC 1.2.1 (UTC 2007-09-17)
Language : English
Default : No
Forced : No
Text #1
ID : 5
Format : UTF-8
Codec ID : S_TEXT/UTF8
Codec ID/Info : UTF-8 Plain Text
Language : Russian
Default : No
Forced : No
Text #2
ID : 6
Format : UTF-8
Codec ID : S_TEXT/UTF8
Codec ID/Info : UTF-8 Plain Text
Language : English
Default : No
Forced : No
Menu
00:00:00.000 : en:00:00:00.000
00:07:49.302 : en:00:07:49.302
00:15:57.665 : en:00:15:57.665
00:23:02.006 : en:00:23:02.006
00:31:07.491 : en:00:31:07.491
00:38:18.838 : en:00:38:18.838
00:46:41.841 : en:00:46:41.841
00:52:44.620 : en:00:52:44.620
00:59:25.020 : en:00:59:25.020
01:06:53.092 : en:01:06:53.092
01:15:28.065 : en:01:15:28.065
01:24:07.000 : en:01:24:07.000

Скриншоты

source vs EbP




Скачать

Скачать торрент!

Как скачивать? · Что такое торрент? · Рейтинг и ограничения

Сайт не распространяет и не хранит электронные версии произведений, а лишь предоставляет доступ к создаваемому пользователями каталогу ссылок на торрент-файлы, которые содержат только списки хеш-сумм

[Профиль] [ЛС]
Показать сообщения:    
Ответить на тему

Текущее время: Сегодня 17:30

Часовой пояс: GMT + 4



Вы не можете начинать темы
Вы не можете отвечать на сообщения
Вы не можете редактировать свои сообщения
Вы не можете удалять свои сообщения
Вы не можете голосовать в опросах
Вы не можете прикреплять файлы к сообщениям
Вы не можете скачивать файлы