Ведьмы из Сугаррамурди / Las brujas de Zugarramurdi (Алекс де ла Иглесиа / Alex de la Iglesia) [2013, Испания, Франция, Ужасы, драма, комедия, WEB-DLRip] Dub

Ответить на тему
 
Автор Сообщение

user ®

Стаж: 7 лет 7 месяцев

Сообщений: 20008

Пост Пост: #1 от 14-Ноя-2013 23:25

[Цитировать]

Ведьмы из Сугаррамурди / Las brujas de Zugarramurdi
Страна: Испания, Франция
Жанр: Ужасы, драма, комедия
Год выпуска: 2013
Продолжительность: 01:44:58
Перевод: Профессиональный (дублированный) [SmartTV]
Cубтитры: нет
Режиссер: Алекс де ла Иглесиа / Alex de la Iglesia
В ролях: Марио Касас, Уго Силва, Хавьер Ботет, Сантьяго Сегура, Каролина Банг, Кармен Маура, Карлос Аресес, Секун де ла Роса, Макарена Гомес, Пепон Ниэто
Описание: Трое незадачливых воришек попадают в заколдованный город, где на протяжении веков правят бал коварные ведьмы. Задача героев проста — унести ноги из страшного места. Для этого надо постараться не влюбиться в обитательниц этого гиблого места… Сюжет основан на подлинной истории, которая случилась здесь в начале XVII века, когда одна из жительниц деревни заявила, что она ведьма и регулярно участвует в шабашах в близлежащих пещерах со своими соседками. Тогда Святая Инквизиция арестовала почти всё население Сугаррамурди и окрестных сёл (около 300 человек), устроив суд по делу «Ведьминской деревни», который длился два года. В результате в 1610 году 40 жителей деревни были обвинены в колдовстве, а 11 из них — сожжены на костре. С тех пор Сугаррамурди запечатлелся в коллективной памяти как обиталище ведьм.
Сэмпл: http://multi-up.com/922985
Качество видео: WEBRip
Формат видео: AVI
Видео: XviD, 720х304, 1733 кбит/с, 25 fps
Аудио: MP3, 2 ch, 128 кбит/с, 48 KHz

MediaInfo

Общее
Полное имя : C:\Users\PC\Downloads\Vedmy.iz.Sugarramurdi.2013.D.WEBRip.1400MB.avi
Формат : AVI
Формат/Информация : Audio Video Interleave
Размер файла : 1,36 Гбайт
Продолжительность : 1 ч. 44 м.
Общий поток : 1861 Кбит/сек
Библиотека кодирования : VirtualDub build 35390/release
Видео
Идентификатор : 0
Формат : MPEG-4 Visual
Профиль формата : Advanced Simple@L5
Параметр BVOP формата : 2
Параметр QPel формата : Нет
Параметр GMC формата : Без точки перехода
Параметр матрицы формата : Default (MPEG)
Режим смешивания : Сжатый битовый поток
Идентификатор кодека : XVID
Идентификатор кодека/Подсказка : XviD
Продолжительность : 1 ч. 44 м.
Битрейт : 1723 Кбит/сек
Ширина : 720 пикселей
Высота : 304 пикселя
Соотношение сторон : 2,35:1
Частота кадров : 25,000 кадров/сек
Цветовое пространство : YUV
Субдискретизация насыщенности : 4:2:0
Битовая глубина : 8 бит
Тип развёртки : Прогрессивная
Метод сжатия : С потерями
Бит/(Пиксели*Кадры) : 0.315
Размер потока : 1,26 Гбайт (93%)
Библиотека кодирования : XviD 1.2.1 (UTC 2008-12-04)
Аудио
Идентификатор : 1
Формат : MPEG Audio
Версия формата : Version 1
Профиль формата : Layer 3
Режим : Joint stereo
Расширение режима : MS Stereo
Идентификатор кодека : 55
Идентификатор кодека/Подсказка : MP3
Продолжительность : 1 ч. 44 м.
Вид битрейта : Постоянный
Битрейт : 128 Кбит/сек
Каналы : 2 канала
Частота : 48,0 КГц
Метод сжатия : С потерями
Размер потока : 96,1 Мбайт (7%)
Выравнивание : Разделение по промежуткам
Продолжительность промежутка : 40 мс. (1,00 видеокадр)
Время предзагрузки промежутка : 500 мс.

Скриншот c названием фильма

Скриншоты

Скачать

Скачать торрент!

Как скачивать? · Что такое торрент? · Рейтинг и ограничения

Сайт не распространяет и не хранит электронные версии произведений, а лишь предоставляет доступ к создаваемому пользователями каталогу ссылок на торрент-файлы, которые содержат только списки хеш-сумм

[Профиль] [ЛС]
Показать сообщения:    
Ответить на тему

Текущее время: Сегодня 15:52

Часовой пояс: GMT + 4



Вы не можете начинать темы
Вы не можете отвечать на сообщения
Вы не можете редактировать свои сообщения
Вы не можете удалять свои сообщения
Вы не можете голосовать в опросах
Вы не можете прикреплять файлы к сообщениям
Вы не можете скачивать файлы