Охотники на ведьм / Hansel & Gretel: Witch Hunters (Томми Виркола / Tommy Wirkola) [2013, США, Германия, ужасы, фэнтези, боевик, BDRip-AVC] [Unrated] Dub + 2xAVO + Original (Eng) + Sub (Rus, Eng)

Ответить на тему
 
Автор Сообщение

user ®

Стаж: 7 лет 7 месяцев

Сообщений: 20008

Пост Пост: #1 от 14-Ноя-2013 23:25

[Цитировать]

Охотники на ведьм / Hansel & Gretel: Witch Hunters
Страна: США, Германия
Жанр: ужасы, фэнтези, боевик
Год выпуска: 2013
Продолжительность: 01:37:56
Перевод#1: Профессиональный (дублированный), со вставками Дольского
Перевод#2: Авторский (одноголосый закадровый), А. Гаврилов (отдельно)
Перевод#3: Авторский (одноголосый закадровый), А. Дольский (отдельно)
Cубтитры: русские, английские
Оригинальная аудиодорожка: английский
Режиссер: Томми Виркола / Tommy Wirkola
В ролях: Джереми Реннер, Джемма Артертон, Фамке Янссен, Зои Белл, Петер Стормаре, Томас Манн, Ингрид Болсай Бердал, Робин Аткин Даунс, Дерек Мирс, Моник Гэндертон
Описание: Едва не погибнув в лапах ужасной ведьмы, Гензель и Гретель стали только сильнее. Одержимые местью, они ведут отчаянную борьбу со злом, даже не подозревая, что их поджидает нечто куда более опасное… собственное прошлое…

Исходник: Hansel & Gretel: Witch Hunters 2013 Unrated 1080p Blu-ray Remux AVC TrueHD 5.1 - KRaLiMaRKo
Качество видео: BDRip-AVC | sample
Формат видео: MKV
Видео кодек: x264
Видео: AVC 1200x500 (2.40:1), 23.976 fps, ~3350 Kbps, 0.23 bit/pixel
Аудио #1: Russian AC3 6ch 48kHz 448Kbps | Dub, со вставками Дольского
Аудио #2: English AC3 6ch 48kHz 448Kbps | Original
Аудио #3: Russian AC3 6ch 48kHz 448Kbps | AVO Гаврилов (отдельным файлом)
Аудио #4: Russian AC3 6ch 48kHz 448Kbps | AVO Дольский (отдельным файлом)
Формат субтитров: softsub (SRT)
Главы: есть

MediaInfo | x264

x264

--[NoImage] raw [info]: 1200x500p 1:1 @ 24000/1001 fps (cfr)
--[NoImage] x264 [info]: using SAR=1/1
--[NoImage] x264 [info]: using cpu capabilities: MMX2 SSE2Fast SSEMisalign LZCNT
--[NoImage] x264 [info]: profile High, level 4.1
--[NoImage] x264 [info]: cabac=1 ref=12 deblock=1:-3:-3 analyse=0x3:0x113 me=umh subme=11 psy=1 fade_compensate=0.00 psy_rd=1.00:0.10 mixed_ref=1 me_range=48 chroma_me=1 trellis=2 8x8dct=1 cqm=0 deadzone=21,11 fast_pskip=0 chroma_qp_offset=-3 threads=6 lookahead_threads=1 sliced_threads=0 nr=0 decimate=0 interlaced=0 bluray_compat=0 constrained_intra=0 bframes=14 b_pyramid=2 b_adapt=2 b_bias=0 direct=3 weightb=1 open_gop=0 weightp=2 keyint=240 keyint_min=23 scenecut=40 intra_refresh=0 rc_lookahead=0 rc=2pass mbtree=0 bitrate=3350 ratetol=1.0 qcomp=0.60 qpmin=0 qpmax=69 qpstep=4 cplxblur=20.0 qblur=0.5 vbv_maxrate=50000 vbv_bufsize=62500 nal_hrd=none ip_ratio=1.40 pb_ratio=1.20 aq=1:0.90
--[NoImage] frames fps kb/s elapsed remain size est.size
--[NoImage] x264 [info]: frame I:1327 Avg QP:13.41 size:109225
--[NoImage] x264 [info]: frame P:32818 Avg QP:16.58 size: 34244
--[NoImage] x264 [info]: frame B:106742 Avg QP:17.75 size: 11161
--[NoImage] x264 [info]: consecutive B-frames: 3.1% 3.1% 7.1% 30.7% 19.9% 25.1% 5.3% 3.0% 0.9% 0.5% 0.4% 0.5% 0.1% 0.1% 0.3%
--[NoImage] x264 [info]: mb I I16..4: 8.3% 69.2% 22.5%
--[NoImage] x264 [info]: mb P I16..4: 1.0% 15.0% 2.3% P16..4: 28.8% 36.0% 14.8% 0.0% 0.0% skip: 2.1%
--[NoImage] x264 [info]: mb B I16..4: 0.1% 2.1% 0.5% B16..8: 30.4% 24.0% 4.8% direct: 6.7% skip:31.5% L0:42.0% L1:43.0% BI:14.9%
--[NoImage] x264 [info]: 8x8 transform intra:79.2% inter:54.7%
--[NoImage] x264 [info]: direct mvs spatial:98.7% temporal:1.3%
--[NoImage] x264 [info]: coded y,uvDC,uvAC intra: 86.3% 94.8% 83.1% inter: 24.7% 32.4% 20.7%
--[NoImage] x264 [info]: i16 v,h,dc,p: 18% 12% 12% 59%
--[NoImage] x264 [info]: i8 v,h,dc,ddl,ddr,vr,hd,vl,hu: 12% 8% 8% 9% 12% 13% 12% 12% 14%
--[NoImage] x264 [info]: i4 v,h,dc,ddl,ddr,vr,hd,vl,hu: 36% 5% 6% 6% 11% 10% 9% 8% 9%
--[NoImage] x264 [info]: i8c dc,h,v,p: 47% 19% 17% 17%
--[NoImage] x264 [info]: Weighted P-Frames: Y:5.9% UV:3.2%
--[NoImage] x264 [info]: ref P L0: 52.0% 8.1% 13.8% 7.0% 5.0% 3.9% 3.2% 2.0% 1.6% 1.3% 1.1% 0.9% 0.2% 0.0%
--[NoImage] x264 [info]: ref B L0: 73.3% 12.9% 5.3% 2.7% 1.9% 1.4% 1.1% 0.7% 0.5% 0.3% 0.1%
--[NoImage] x264 [info]: ref B L1: 93.6% 6.4%
--[NoImage] x264 [info]: kb/s:3349.31
General
Complete name : E:\...\Hansel.&.Gretel.Witch.Hunters.2013.Unrated.BDRip.x264.DD5.1.Rus.Eng-E76.mkv
Format : Matroska
Format version : Version 4 / Version 2
File size : 2.91 GiB
Duration : 1h 37mn
Overall bit rate : 4 248 Kbps
Movie name : Hansel.&.Gretel.Witch.Hunters.2013.Unrated.BDRip.x264.DD5.1.Rus.Eng-E76
Encoded date : UTC 2013-11-14 00:19:38
Writing application : mkvmerge v6.2.0 ('Promised Land') built on Apr 28 2013 12:22:01
Writing library : libebml v1.3.0 + libmatroska v1.4.0
Video
ID : 1
Format : AVC
Format/Info : Advanced Video Codec
Format profile : High@L4.1
Format settings, CABAC : Yes
Format settings, ReFrames : 12 frames
Codec ID : V_MPEG4/ISO/AVC
Duration : 1h 37mn
Bit rate : 3 350 Kbps
Width : 1 200 pixels
Height : 500 pixels
Display aspect ratio : 2.40:1
Frame rate mode : Constant
Frame rate : 23.976 fps
Color space : YUV
Chroma subsampling : 4:2:0
Bit depth : 8 bits
Scan type : Progressive
Bits/(Pixel*Frame) : 0.233
Stream size : 2.24 GiB (77%)
Title : Encode by Enclave76
Writing library : x264 core 130 r2273kMod b3065e6
Encoding settings : cabac=1 / ref=12 / deblock=1:-3:-3 / analyse=0x3:0x113 / me=umh / subme=11 / psy=1 / fade_compensate=0.00 / psy_rd=1.00:0.10 / mixed_ref=1 / me_range=48 / chroma_me=1 / trellis=2 / 8x8dct=1 / cqm=0 / deadzone=21,11 / fast_pskip=0 / chroma_qp_offset=-3 / threads=6 / lookahead_threads=1 / sliced_threads=0 / nr=0 / decimate=0 / interlaced=0 / bluray_compat=0 / constrained_intra=0 / bframes=14 / b_pyramid=2 / b_adapt=2 / b_bias=0 / direct=3 / weightb=1 / open_gop=0 / weightp=2 / keyint=240 / keyint_min=23 / scenecut=40 / intra_refresh=0 / rc_lookahead=0 / rc=2pass / mbtree=0 / bitrate=3350 / ratetol=1.0 / qcomp=0.60 / qpmin=0 / qpmax=69 / qpstep=4 / cplxblur=20.0 / qblur=0.5 / vbv_maxrate=50000 / vbv_bufsize=62500 / nal_hrd=none / ip_ratio=1.40 / pb_ratio=1.20 / aq=1:0.90
Language : English
Default : No
Forced : No
Matrix coefficients : BT.709
Audio #1
ID : 2
Format : AC-3
Format/Info : Audio Coding 3
Mode extension : CM (complete main)
Format settings, Endianness : Big
Codec ID : A_AC3
Duration : 1h 37mn
Bit rate mode : Constant
Bit rate : 448 Kbps
Channel(s) : 6 channels
Channel positions : Front: L C R, Side: L R, LFE
Sampling rate : 48.0 KHz
Bit depth : 16 bits
Compression mode : Lossy
Stream size : 314 MiB (11%)
Title : Dub
Language : Russian
Default : Yes
Forced : No
Audio #2
ID : 3
Format : AC-3
Format/Info : Audio Coding 3
Mode extension : CM (complete main)
Format settings, Endianness : Big
Codec ID : A_AC3
Duration : 1h 37mn
Bit rate mode : Constant
Bit rate : 448 Kbps
Channel(s) : 6 channels
Channel positions : Front: L C R, Side: L R, LFE
Sampling rate : 48.0 KHz
Bit depth : 16 bits
Compression mode : Lossy
Stream size : 314 MiB (11%)
Title : Original
Language : English
Default : No
Forced : No
Text #1
ID : 4
Format : UTF-8
Codec ID : S_TEXT/UTF8
Codec ID/Info : UTF-8 Plain Text
Title : Forced
Language : Russian
Default : Yes
Forced : No
Text #2
ID : 5
Format : UTF-8
Codec ID : S_TEXT/UTF8
Codec ID/Info : UTF-8 Plain Text
Title : BD
Language : Russian
Default : No
Forced : No
Text #3
ID : 6
Format : UTF-8
Codec ID : S_TEXT/UTF8
Codec ID/Info : UTF-8 Plain Text
Title : voronine (Dub)
Language : Russian
Default : No
Forced : No
Text #4
ID : 7
Format : UTF-8
Codec ID : S_TEXT/UTF8
Codec ID/Info : UTF-8 Plain Text
Title : Doctor_Joker
Language : Russian
Default : No
Forced : No
Text #5
ID : 8
Format : UTF-8
Codec ID : S_TEXT/UTF8
Codec ID/Info : UTF-8 Plain Text
Language : English
Default : No
Forced : No
Text #6
ID : 9
Format : UTF-8
Codec ID : S_TEXT/UTF8
Codec ID/Info : UTF-8 Plain Text
Title : SDH
Language : English
Default : No
Forced : No
Text #7
ID : 10
Format : UTF-8
Codec ID : S_TEXT/UTF8
Codec ID/Info : UTF-8 Plain Text
Title : SDH-Colored
Language : English
Default : No
Forced : No
Menu
00:00:00.000 : en:00:00:00.000
00:09:02.333 : en:00:09:02.333
00:16:12.805 : en:00:16:12.805
00:26:24.958 : en:00:26:24.958
00:35:18.032 : en:00:35:18.032
00:46:34.750 : en:00:46:34.750
00:57:17.725 : en:00:57:17.725
01:04:26.279 : en:01:04:26.279
01:09:44.388 : en:01:09:44.388
01:14:10.571 : en:01:14:10.571
01:22:05.003 : en:01:22:05.003
01:29:02.253 : en:01:29:02.253

Скриншоты






vs source
Скачать

Скачать торрент!

Как скачивать? · Что такое торрент? · Рейтинг и ограничения

Сайт не распространяет и не хранит электронные версии произведений, а лишь предоставляет доступ к создаваемому пользователями каталогу ссылок на торрент-файлы, которые содержат только списки хеш-сумм

[Профиль] [ЛС]
Показать сообщения:    
Ответить на тему

Текущее время: Сегодня 20:02

Часовой пояс: GMT + 4



Вы не можете начинать темы
Вы не можете отвечать на сообщения
Вы не можете редактировать свои сообщения
Вы не можете удалять свои сообщения
Вы не можете голосовать в опросах
Вы не можете прикреплять файлы к сообщениям
Вы не можете скачивать файлы