Убойный уикенд / Cottage Country (Питер Веллингтон / Peter Wellington) [2013, Канада, комедия, криминал, триллер, HDRip] VO (den904)

Ответить на тему
 
Автор Сообщение

user ®

Стаж: 7 лет 7 месяцев

Сообщений: 20008

Пост Пост: #1 от 14-Ноя-2013 23:25

[Цитировать]

Убойный уикенд / Cottage Country
Страна: Канада
Жанр: комедия, криминал, триллер
Год выпуска: 2013
Продолжительность: 01:31:21
Перевод: Одноголосый закадровый den904
Cубтитры: нет
Режиссер: Питер Веллингтон / Peter Wellington
В ролях: Тайлер Лабайн, Малин Акерман, Джим Аннан, Бенджамин Эйрс, Сабрина Грдевич, Кристианна Хауфлер, Дэн Петронижевич, Люси Панч, Рэнди Браун, Уэйн В. Джонсон
Описание: Тодд Чиповски собирается провести незабываемый уик-энд в загородном коттедже, который он арендовал специально для того, чтобы сделать предложение своей возлюбленной Кэмми Райан. Но торжественное событие и чудесный отдых подпортило появление братца Тодда Сэлинджера и его подружки Маши. Однако выходные все равно становятся для героев незабываемыми — особенно после того, как Тодд в порыве ярости случайно убивает своего брата топором.
Доп. информация: Кинопоиск 5.25, IMDB 5.4
Качество видео: HDRip
Формат видео: AVI
Видео: XviD, 720x384, 24 fps, 1830 kbps
Аудио: AC3, 48000 Гц, 448 Кбит/сек, 6ch

MediaInfo

Общее
Полное имя : E:\Загрузки\Ubojnyj.Uikend.2013.L1.HDRip.avi
Формат : AVI
Формат/Информация : Audio Video Interleave
Размер файла : 1,46 Гбайт
Продолжительность : 1 ч. 31 м.
Общий поток : 2288 Кбит/сек
Программа кодирования : VirtualDubMod 1.5.10.3 | www.virtualdub-fr.org || (build 2550/release)
Библиотека кодирования : VirtualDubMod build 2550/release
Видео
Идентификатор : 0
Формат : MPEG-4 Visual
Профиль формата : Advanced Simple@L5
Параметр BVOP формата : 2
Параметр QPel формата : Нет
Параметр GMC формата : Без точки перехода
Параметр матрицы формата : Выборочная
Идентификатор кодека : XVID
Идентификатор кодека/Подсказка : XviD
Продолжительность : 1 ч. 31 м.
Битрейт : 1830 Кбит/сек
Ширина : 720 пикселей
Высота : 384 пикселя
Соотношение сторон : 1,85:1
Частота кадров : 24,000 кадра/сек
Цветовое пространство : YUV
Субдискретизация насыщенности : 4:2:0
Битовая глубина : 8 бит
Тип развёртки : Прогрессивная
Метод сжатия : С потерями
Бит/(Пиксели*Кадры) : 0.276
Размер потока : 1,17 Гбайт (80%)
Библиотека кодирования : XviD 1.2.1 (UTC 2008-12-04)
Аудио
Идентификатор : 1
Формат : AC-3
Формат/Информация : Audio Coding 3
Расширение режима : CM (complete main)
Параметр Endianness формата : Big
Идентификатор кодека : 2000
Продолжительность : 1 ч. 31 м.
Вид битрейта : Постоянный
Битрейт : 448 Кбит/сек
Каналы : 6 каналов
Расположение каналов : Front: L C R, Side: L R, LFE
Частота : 48,0 КГц
Битовая глубина : 16 бит
Метод сжатия : С потерями
Размер потока : 293 Мбайт (20%)
Выравнивание : Разделение по промежуткам
Продолжительность промежутка : 42 мс. (1,00 видеокадр)
Время предзагрузки промежутка : 500 мс.

Скриншоты





Скачать

Скачать торрент!

Как скачивать? · Что такое торрент? · Рейтинг и ограничения

Сайт не распространяет и не хранит электронные версии произведений, а лишь предоставляет доступ к создаваемому пользователями каталогу ссылок на торрент-файлы, которые содержат только списки хеш-сумм

[Профиль] [ЛС]
Показать сообщения:    
Ответить на тему

Текущее время: Сегодня 09:48

Часовой пояс: GMT + 4



Вы не можете начинать темы
Вы не можете отвечать на сообщения
Вы не можете редактировать свои сообщения
Вы не можете удалять свои сообщения
Вы не можете голосовать в опросах
Вы не можете прикреплять файлы к сообщениям
Вы не можете скачивать файлы