Вещественное доказательство / Physical Evidence (Майкл Крайтон / Michael Crichton) [1989, США, триллер, детектив, криминал, BDRemux 1080p] MVO + AVO (Гаврилов) + Original eng + Sub rus, eng

Ответить на тему
 
Автор Сообщение

user ®

Стаж: 7 лет 7 месяцев

Сообщений: 20008

Пост Пост: #1 от 14-Ноя-2013 14:15

[Цитировать]

Вещественное доказательство / Physical Evidence
Страна: США
Жанр: триллер, детектив, криминал
Год выпуска: 1989
Продолжительность: 01:39:22
Перевод#1: Профессиональный (многоголосый закадровый) | R5
Перевод#2: Авторский (одноголосый закадровый), А. Гаврилов
Cубтитры: русские, английские
Оригинальная аудиодорожка: английский
Режиссер: Майкл Крайтон / Michael Crichton
В ролях: Берт Рейнолдс, Тереза Расселл, Нед Битти, Кэй Ленц, Тед МакГинли, Том О’Брайен, Кеннет Уэлш, Рэй Бэйкер, Кен Джеймс, Майкл П. Моран
Описание: Бывший полицейский детектив из Бостона Джо Пэрис обвинен в убийстве Джека Флаэрти, личности с темным прошлым. У Джо нет алиби, и он был смертельно пьян в ночь убийства. За это, казалось бы, безнадежное дело берется адвокат-дебютантка Дженни Хадсон...
[/url]
Доп. информация: за работу над дорогами благодарим Linger babe
Тип релиза: BDRemux 1080p | The Anderson Tapes 1971 / Physical Evidence 1989 1080p Blu-ray AVC DTS-HD MA 2.0 @ HDBits | sample
Контейнер: MKV
Видео: AVC 1920x1080 (16:9), 23.976 fps, ~29.0 Mbps
Аудио #1: Russian AC3 6ch 48kHz 384Kbps | MVO R5
Аудио #2: Russian AC3 6ch 48kHz 384Kbps | AVO Гаврилов
Аудио #3: English DTS-HD MA / 2.0 / 48 kHz / 1504 kbps / 24-bit (DTS Core: 2.0 / 48 kHz / 768 kbps / 24-bit / DN -4dB) | Original
Формат субтитров: softsub (SRT)
Главы: есть

MediaInfo

General
Complete name : D:\...\Physical.Evidence.1989.1080p.Remux.AVC.Rus.Eng.mkv
Format : Matroska
Format version : Version 4 / Version 2
File size : 21.6 GiB
Duration : 1h 39mn
Overall bit rate mode : Variable
Overall bit rate : 31.2 Mbps
Movie name : Physical.Evidence.1989.1080p.Remux.AVC.Rus.Eng
Encoded date : UTC 2013-11-13 03:26:10
Writing application : mkvmerge v6.2.0 ('Promised Land') built on Apr 28 2013 12:22:01
Writing library : libebml v1.3.0 + libmatroska v1.4.0
Video
ID : 1
Format : AVC
Format/Info : Advanced Video Codec
Format profile : High@L4.1
Format settings, CABAC : Yes
Format settings, ReFrames : 4 frames
Codec ID : V_MPEG4/ISO/AVC
Duration : 1h 39mn
Bit rate mode : Variable
Bit rate : 29.0 Mbps
Maximum bit rate : 38.0 Mbps
Width : 1 920 pixels
Height : 1 080 pixels
Display aspect ratio : 16:9
Frame rate mode : Constant
Frame rate : 23.976 fps
Color space : YUV
Chroma subsampling : 4:2:0
Bit depth : 8 bits
Scan type : Progressive
Bits/(Pixel*Frame) : 0.583
Stream size : 20.1 GiB (93%)
Title : Physical Evidence (1989)
Language : English
Default : Yes
Forced : No
Audio #1
ID : 2
Format : AC-3
Format/Info : Audio Coding 3
Mode extension : CM (complete main)
Format settings, Endianness : Big
Codec ID : A_AC3
Duration : 1h 39mn
Bit rate mode : Constant
Bit rate : 384 Kbps
Channel(s) : 6 channels
Channel positions : Front: L C R, Side: L R, LFE
Sampling rate : 48.0 KHz
Bit depth : 16 bits
Compression mode : Lossy
Stream size : 273 MiB (1%)
Title : MVO R5
Language : Russian
Default : Yes
Forced : No
Audio #2
ID : 3
Format : AC-3
Format/Info : Audio Coding 3
Mode extension : CM (complete main)
Format settings, Endianness : Big
Codec ID : A_AC3
Duration : 1h 39mn
Bit rate mode : Constant
Bit rate : 384 Kbps
Channel(s) : 6 channels
Channel positions : Front: L C R, Side: L R, LFE
Sampling rate : 48.0 KHz
Bit depth : 16 bits
Compression mode : Lossy
Stream size : 273 MiB (1%)
Title : AVO Gavrilov
Language : Russian
Default : No
Forced : No
Audio #3
ID : 4
Format : DTS
Format/Info : Digital Theater Systems
Format profile : MA / Core
Codec ID : A_DTS
Duration : 1h 39mn
Bit rate mode : Variable
Bit rate : 800 Kbps / 755 Kbps
Channel(s) : 2 channels
Channel positions : Front: L R
Sampling rate : 48.0 KHz
Bit depth : 24 bits
Compression mode : Lossless / Lossy
Title : Original
Language : English
Default : No
Forced : No
Text #1
ID : 5
Format : UTF-8
Codec ID : S_TEXT/UTF8
Codec ID/Info : UTF-8 Plain Text
Language : Russian
Default : No
Forced : No
Text #2
ID : 6
Format : UTF-8
Codec ID : S_TEXT/UTF8
Codec ID/Info : UTF-8 Plain Text
Language : English
Default : No
Forced : No
Menu
00:00:00.000 : en:00:00:00.000
00:07:49.302 : en:00:07:49.302
00:15:57.665 : en:00:15:57.665
00:23:02.006 : en:00:23:02.006
00:31:07.491 : en:00:31:07.491
00:38:18.838 : en:00:38:18.838
00:46:41.841 : en:00:46:41.841
00:52:44.620 : en:00:52:44.620
00:59:25.020 : en:00:59:25.020
01:06:53.092 : en:01:06:53.092
01:15:28.065 : en:01:15:28.065
01:24:07.000 : en:01:24:07.000

Скриншоты


Скачать

Скачать торрент!

Как скачивать? · Что такое торрент? · Рейтинг и ограничения

Сайт не распространяет и не хранит электронные версии произведений, а лишь предоставляет доступ к создаваемому пользователями каталогу ссылок на торрент-файлы, которые содержат только списки хеш-сумм

[Профиль] [ЛС]
Показать сообщения:    
Ответить на тему

Текущее время: Сегодня 00:36

Часовой пояс: GMT + 4



Вы не можете начинать темы
Вы не можете отвечать на сообщения
Вы не можете редактировать свои сообщения
Вы не можете удалять свои сообщения
Вы не можете голосовать в опросах
Вы не можете прикреплять файлы к сообщениям
Вы не можете скачивать файлы