Философы: Урок выживания / The Philosophers (Джон Хаддлс / John Huddles) [2013, США, Индонезия, фантастика, триллер, HDTVRip] Dub (Чистый звук)

Ответить на тему
 
Автор Сообщение

user ®

Стаж: 7 лет 7 месяцев

Сообщений: 20008

Пост Пост: #1 от 14-Ноя-2013 11:05

[Цитировать]

Философы: Урок выживания / The Philosophers
Страна: США, Индонезия
Жанр: фантастика, триллер
Год выпуска: 2013
Продолжительность: 01:36:59
Перевод: Профессиональный (дублированный) (Чистый звук)
Cубтитры: нет
Режиссер: Джон Хаддлс / John Huddles
В ролях: Софи Лоу (Petra), Джеймс Д’Арси (Mr. Zimit), Риз Уэйкфилд (James), Дэрил Сабара (Chips), Бонни Райт (Georgina), Кэти Финдлей (Bonnie), Фредди Строма (Jack), Хоуп Олэйд Уилсон (OmosedГ©), Абхи Синха (Kavi), Джейкоб Артист (Parker), Эрин Мориарти (Vivian), Майя Митчелл (Beatrice)
Описание: В международной школе в Джакарте таинственный учитель философии в качестве выпускного экзамена предлагает 20 студентам провести эксперимент. Этот опыт будет самым экстремальным, с которым они когда-либо сталкивались.
Используя только силу логики, студенты должны выбрать, кто из них будет достоин получить место в подземном бункере - единственном месте, где можно спастись от приближающейся ядерной катастрофы. Бункер рассчитан на десять человек, а значит, тех, кого не выбирают, ожидает жестокая смерть. Реальность классной комнаты эффектно перетекает в воображаемый, но в то же время пугающий мир надвигающегося апокалипсиса...
Сэмпл: http://multi-up.com/922968
Качество видео: HDTVRip
Формат видео: AVI
Видео: XviD, 720x404 (2.35:1), 1627 kbps, 25 fps
Аудио: AC3, 5.1, 48 kHz, 384 kbps, 16 bit

MediaInfo

Общее
Полное имя                               : C:\Users\Павел\Desktop\Filosofy.urok.vyzivanija_2013.D.HDTVRip.1400MB.avi
Формат                                   : AVI
Формат/Информация                        : Audio Video Interleave
Размер файла                             : 1,37 Гбайт
Продолжительность                        : 1 ч. 36 м.
Общий поток                              : 2022 Кбит/сек
Программа кодирования                    : VirtualDubMod 1.5.10.3 | www.virtualdub-fr.org || (build 2550/release)
Библиотека кодирования                   : VirtualDubMod build 2550/release
Видео
Идентификатор                            : 0
Формат                                   : MPEG-4 Visual
Профиль формата                          : Advanced Simple@L5
Параметр BVOP формата                    : 2
Параметр QPel формата                    : Нет
Параметр GMC формата                     : Без точки перехода
Параметр матрицы формата                 : Default (MPEG)
Идентификатор кодека                     : XVID
Идентификатор кодека/Подсказка           : XviD
Продолжительность                        : 1 ч. 36 м.
Битрейт                                  : 1628 Кбит/сек
Ширина                                   : 720 пикселей
Высота                                   : 404 пикселя
Соотношение сторон                       : 2,35:1
Частота кадров                           : 25,000 кадров/сек
Цветовое пространство                    : YUV
Субдискретизация насыщенности            : 4:2:0
Битовая глубина                          : 8 бит
Тип развёртки                            : Прогрессивная
Метод сжатия                             : С потерями
Бит/(Пиксели*Кадры)                      : 0.297
Размер потока                            : 1,10 Гбайт (81%)
Библиотека кодирования                   : XviD 1.2.1 (UTC 2008-12-04)
Аудио
Идентификатор                            : 1
Формат                                   : AC-3
Формат/Информация                        : Audio Coding 3
Расширение режима                        : CM (complete main)
Параметр Endianness формата              : Big
Идентификатор кодека                     : 2000
Продолжительность                        : 1 ч. 36 м.
Вид битрейта                             : Постоянный
Битрейт                                  : 384 Кбит/сек
Каналы                                   : 6 каналов
Расположение каналов                     : Front: L C R, Side: L R, LFE
Частота                                  : 48,0 КГц
Битовая глубина                          : 16 бит
Метод сжатия                             : С потерями
Размер потока                            : 266 Мбайт (19%)
Выравнивание                             : Разделение по промежуткам
Продолжительность промежутка             : 40  мс. (1,00 видеокадр)
Время предзагрузки промежутка            : 500  мс.

Скриншот c названием фильма

Скриншоты

Скачать

Скачать торрент!

Как скачивать? · Что такое торрент? · Рейтинг и ограничения

Сайт не распространяет и не хранит электронные версии произведений, а лишь предоставляет доступ к создаваемому пользователями каталогу ссылок на торрент-файлы, которые содержат только списки хеш-сумм

[Профиль] [ЛС]
Показать сообщения:    
Ответить на тему

Текущее время: Сегодня 21:58

Часовой пояс: GMT + 4



Вы не можете начинать темы
Вы не можете отвечать на сообщения
Вы не можете редактировать свои сообщения
Вы не можете удалять свои сообщения
Вы не можете голосовать в опросах
Вы не можете прикреплять файлы к сообщениям
Вы не можете скачивать файлы