Паранойя / Paranoia (Роберт Лукетич / Robert Luketic) [2013, США, Триллер, драма, BDRip] MVO (BaibaKo)

Ответить на тему
 
Автор Сообщение

user ®

Стаж: 7 лет 7 месяцев

Сообщений: 20008

Пост Пост: #1 от 13-Ноя-2013 23:20

[Цитировать]

Паранойя / Paranoia
«В войне двух королей, даже пешка может победить»
- Год выпуска: 2013
Выпущено: США, Франция / Reliance Entertainment
Жанр: триллер, драма
Продолжительность: 01:46:06
Перевод: Профессиональный (многоголосый закадровый) BaibaKo
Cубтитры: нет-Режиссер:
Роберт Лукетич / Robert Luketic-В ролях:
Лиам Хемсворт (Adam Cassidy), Гари Олдман (Nicolas Wyatt), Эмбер Хёрд (Emma Jennings), Харрисон Форд (Jock Goddard), Лукас Тилл (Kevin), Эмбет Дэвидц (Dr. Judith Bolton), Джулиан МакМэхон (Miles Meechum), Джош Холлоуэй (Agent Gamble), Ричард Дрейфусс (Frank Cassidy), Анджела Сарафян (Allison)-Описание:
Адам Кэссиди — типичный «белый воротничок», пытающийся преуспеть на должности молодого специалиста в крупной телекоммуникационной корпорации. После одной весьма дорогостоящей ошибки он сталкивается лицом к лицу с безжалостным президентом компании, который соглашается не увольнять провинившегося при одном условии: Адам должен шпионить за старым наставником своего босса…-IMDB | КиноПоиск | Сэмпл |-Тип релиза: BDRip [Paranoia.2013.1080p.BluRay.AVC.DTS-HD.MA.5.1-PublicHD]
Контейнер: AVI
Видео: 720x304 (2.37:1), 23.976 fps, XviD build 73 ~1571 kbps avg, 0.30 bit/pixel
Аудио: 48 kHz, AC3 Dolby Digital, 3/2 (L,C,R,l,r) + LFE ch, ~384.00 kbps avg
-

Скриншоты

MediaInfo

General
Complete name                            : D:\Paranoya_2013_BDRip_MVO_by_Dalemake.avi
Format                                   : AVI
Format/Info                              : Audio Video Interleave
File size                                : 1.46 GiB
Duration                                 : 1h 46mn
Overall bit rate                         : 1 965 Kbps
Writing application                      : VirtualDubMod 1.5.10.3 | www.virtualdub-fr.org || (build 2550/release)
Writing library                          : VirtualDubMod build 2550/release
Video
ID                                       : 0
Format                                   : MPEG-4 Visual
Format profile                           : Advanced Simple@L5
Format settings, BVOP                    : 1
Format settings, QPel                    : No
Format settings, GMC                     : No warppoints
Format settings, Matrix                  : Custom
Codec ID                                 : XVID
Codec ID/Hint                            : XviD
Duration                                 : 1h 46mn
Bit rate                                 : 1 572 Kbps
Width                                    : 720 pixels
Height                                   : 304 pixels
Display aspect ratio                     : 2.35:1
Frame rate                               : 23.976 fps
Color space                              : YUV
Chroma subsampling                       : 4:2:0
Bit depth                                : 8 bits
Scan type                                : Progressive
Compression mode                         : Lossy
Bits/(Pixel*Frame)                       : 0.300
Stream size                              : 1.16 GiB (80%)
Writing library                          : XviD 73
Audio
ID                                       : 1
Format                                   : AC-3
Format/Info                              : Audio Coding 3
Mode extension                           : CM (complete main)
Format settings, Endianness              : Big
Codec ID                                 : 2000
Duration                                 : 1h 46mn
Bit rate mode                            : Constant
Bit rate                                 : 384 Kbps
Channel(s)                               : 6 channels
Channel positions                        : Front: L C R, Side: L R, LFE
Sampling rate                            : 48.0 KHz
Bit depth                                : 16 bits
Compression mode                         : Lossy
Stream size                              : 291 MiB (20%)
Alignment                                : Split accross interleaves
Interleave, duration                     : 42 ms (1.00 video frame)
Interleave, preload duration             : 500 ms
-
Скачать

Скачать торрент!

Как скачивать? · Что такое торрент? · Рейтинг и ограничения

Сайт не распространяет и не хранит электронные версии произведений, а лишь предоставляет доступ к создаваемому пользователями каталогу ссылок на торрент-файлы, которые содержат только списки хеш-сумм

[Профиль] [ЛС]

WorldCreator

Стаж: 3 года 2 месяца

Сообщений: 172

Пост Пост: #2 от 21-Ноя-2013 03:33 (спустя 7 дней)

[Цитировать]

Еле досмотрел! Пустой фильм абсолютно, актёры не играют совсем. Пиршество гламура...
[Профиль] [ЛС]
Показать сообщения:    
Ответить на тему

Текущее время: Сегодня 13:41

Часовой пояс: GMT + 4



Вы не можете начинать темы
Вы не можете отвечать на сообщения
Вы не можете редактировать свои сообщения
Вы не можете удалять свои сообщения
Вы не можете голосовать в опросах
Вы не можете прикреплять файлы к сообщениям
Вы не можете скачивать файлы