Преданность / Ab Tumhare Hawale Watan Sathiyo (Анил Шарма / Anil Sharma) [2004, Индия, Боевик, мелодрама, драма, военный, DVDRip] MVO

Ответить на тему
 
Автор Сообщение

user ®

Стаж: 12 лет

Сообщений: 15092

Пост Пост: #1 от 13-Ноя-2013 20:10

[Цитировать]

Преданность / Ab Tumhare Hawale Watan Sathiyo
Страна: Индия
Жанр: Боевик, мелодрама, драма, военный
Год выпуска: 2004
Продолжительность: 03:11:55
Перевод: Профессиональный (многоголосый закадровый)
Cубтитры: нет
Режиссер: Анил Шарма / Anil Sharma
В ролях: Амитабх Баччан, Акшай Кумар, Бобби Деол, Дивья Кхосла, Сандали Синха, Нагма, Арти Чабрия, Вивек Шок, Дэнни Дензонгпа
Описание: Кунал (Бобби Деол) идет на службу в армию исключительно из уважения к деду Амарджиту Сингху (Амитабх Баччан), легендарному главнокомандующему. Здесь он долгое время не может найти себя, но любовь к Швете (Дивья Кхосла) придает новый толчок его жизни. Однако Швета все еще любит своего мужа, майора Раджива (Акшай Кумар), пропавшего без вести несколько лет тому назад, и поэтому долгое время остается равнодушной к ухаживаниям Кунала. Когда же кажется, что лед растоплен, из небытия возвращается Раджив...
Сэмпл: http://multi-up.com/923029
Качество видео: DVDRip
Формат видео: AVI
Видео: XviD build 50, 704x320 (2.20:1), 23.976 fps 954 kbps avg
Аудио: MPEG Layer 3, 48 kHz, 2/0 (L,R) ch, 128.00 kbps avg

MediaInfo

General
Complete name : D:\Predannost.2004.XviD.DVDRip-Dego.avi
Format : AVI
Format/Info : Audio Video Interleave
File size : 1.46 GiB
Duration : 3h 11mn
Overall bit rate : 1 092 Kbps
Writing application : VirtualDubMod 1.5.10.2 (build 2540/release)
Writing library : VirtualDubMod build 2540/release
Video
ID : 0
Format : MPEG-4 Visual
Format profile : AdvancedSimple@L5
Format settings, BVOP : Yes
Format settings, QPel : No
Format settings, GMC : No warppoints
Format settings, Matrix : Default (MPEG)
Codec ID : XVID
Codec ID/Hint : XviD
Duration : 3h 11mn
Bit rate : 955 Kbps
Width : 704 pixels
Height : 320 pixels
Display aspect ratio : 2.2
Frame rate : 23.976 fps
Resolution : 24 bits
Colorimetry : 4:2:0
Scan type : Progressive
Bits/(Pixel*Frame) : 0.177
Stream size : 1.28 GiB (87%)
Writing library : XviD 1.2.1 (UTC 2008-12-04)
Audio
ID : 1
Format : MPEG Audio
Format version : Version 1
Format profile : Layer 3
Codec ID : 55
Codec ID/Hint : MP3
Duration : 3h 11mn
Bit rate mode : Constant
Bit rate : 128 Kbps
Channel(s) : 2 channels
Sampling rate : 48.0 KHz
Resolution : 16 bits
Stream size : 176 MiB (12%)
Alignment : Aligned on interleaves
Interleave, duration : 42 ms (1.00 video frame)
Interleave, preload duration : 504 ms
Writing library : LAME3.98r
Encoding settings : -m s -V 4 -q 2 -lowpass 17 -b 128

Скриншоты

Скачать

Скачать торрент! Преданность / Ab Tumhare Hawale Watan Sathiyo (Анил Шарма / Anil Sharma) [2004, Индия, Боевик, мелодрама, драма, военный, DVDRip] MVO

Как скачивать? · Что такое торрент? · Рейтинг и ограничения

Сайт не распространяет и не хранит электронные версии произведений, а лишь предоставляет доступ к создаваемому пользователями каталогу ссылок на торрент-файлы, которые содержат только списки хеш-сумм

[Профиль] [ЛС]
Показать сообщения:    
Ответить на тему

Текущее время: Сегодня 05:33

Часовой пояс: GMT + 4



Вы не можете начинать темы
Вы не можете отвечать на сообщения
Вы не можете редактировать свои сообщения
Вы не можете удалять свои сообщения
Вы не можете голосовать в опросах
Вы не можете прикреплять файлы к сообщениям
Вы не можете скачивать файлы