Убийство школьного президента / Assassination of a High School President (Бретт Саймон / Brett Simon) [2008, США, Комедия, BDRip 1080p] MVO + Original Eng

Ответить на тему
 
Автор Сообщение

user ®

Стаж: 7 лет 7 месяцев

Сообщений: 20008

Пост Пост: #1 от 13-Ноя-2013 20:10

[Цитировать]

Убийство школьного президента / Assassination of a High School President
Страна: США
Жанр: Комедия
Год выпуска: 2008
Продолжительность: 01:33:03
Перевод: Профессиональный (многоголосый закадровый)
Cубтитры: нет
Оригинальная аудиодорожка: английский
Режиссер: Бретт Саймон/ Brett Simon
В ролях: Рис Томпсон, Миша Бартон, Брюс Уиллис, Рамер Уиллис, Майкл Раппапорт, Кэтрин Моррис, Мелони Диас
Описание: Первая красавица школы Франческа (Миша Бартон) и репортер школьной газеты берутся за расследование кражи экзаменационных билетов, в результате чего обнаруживают нити, ведущие к гораздо более коварному деянию, в котором замешаны школьный президент и главный местный заводила. Брюс Уиллис исполнил в фильме роль эксцентричного директора школы - ветерана боевых действий в Ираке, который никак не расстанется с грезами о своих славных победах. Рамер Уиллис сыграла роль неловкой подружки Франчески.
Сэмпл: http://yadi.sk/d/ytRlgN2LCdKWf
Тип релиза: BDRip 1080p (rip by Andi)
Контейнер: MKV
Видео кодек: х264
Аудио кодек: DTS
Видео: 1920*800, 9400 Кбит/сек, 23,976 кадра/сек
Аудио: DTS, 1510 Кбит/сек, 6Ch, 48,0 КГц-русский
Аудио 2: DTS, 1510 Кбит/сек, 6Ch, 48,0 КГц-английский

MediaInfo

Общее
Уникальный идентификатор : 219338776772318712215688774329085759268 (0xA5031C9FEA366408A9457E9EBF8C8F24)
Полное имя : P:\Assassination of a High School President BD Rip 1080(RG AVI-AVC).mkv
Формат : Matroska
Версия формата : Version 2
Размер файла : 8,07 Гбайт
Продолжительность : 1 ч. 33 м.
Общий поток : 12,4 Мбит/сек
Дата кодирования : UTC 2013-11-13 14:25:53
Программа кодирования : mkvmerge v5.5.0 ('Healer') built on Apr 6 2012 21:43:24
Библиотека кодирования : libebml v1.2.3 + libmatroska v1.3.0
Видео
Идентификатор : 1
Формат : AVC
Формат/Информация : Advanced Video Codec
Профиль формата : High@L4.1
Параметр CABAC формата : Да
Параметр ReFrames формата : 3 кадра
Идентификатор кодека : V_MPEG4/ISO/AVC
Продолжительность : 1 ч. 33 м.
Битрейт : 9400 Кбит/сек
Ширина : 1920 пикселей
Высота : 800 пикселей
Соотношение сторон : 2,40:1
Режим частоты кадров : Постоянный
Частота кадров : 23,976 кадра/сек
Цветовое пространство : YUV
Субдискретизация насыщенности : 4:2:0
Битовая глубина : 8 бит
Тип развёртки : Прогрессивная
Бит/(Пиксели*Кадры) : 0.255
Размер потока : 5,95 Гбайт (74%)
Библиотека кодирования : x264 core 128 r2216M 198a7ea
Настройки программы : cabac=1 / ref=3 / deblock=1:-3:-3 / analyse=0x3:0x133 / me=umh / subme=9 / psy=1 / psy_rd=1.00:0.00 / mixed_ref=1 / me_range=64 / chroma_me=1 / trellis=1 / 8x8dct=1 / cqm=0 / deadzone=21,11 / fast_pskip=1 / chroma_qp_offset=-4 / threads=2 / lookahead_threads=1 / sliced_threads=0 / nr=10 / decimate=0 / interlaced=0 / bluray_compat=0 / constrained_intra=0 / bframes=3 / b_pyramid=1 / b_adapt=2 / b_bias=7 / direct=1 / weightb=1 / open_gop=0 / weightp=2 / keyint=230 / keyint_min=23 / scenecut=40 / intra_refresh=0 / rc_lookahead=40 / rc=2pass / mbtree=1 / bitrate=9400 / ratetol=1.0 / qcomp=0.60 / qpmin=0 / qpmax=69 / qpstep=4 / cplxblur=20.0 / qblur=0.5 / ip_ratio=1.20 / aq=1:1.00
Default : Да
Forced : Нет
Аудио #1
Идентификатор : 2
Формат : DTS
Формат/Информация : Digital Theater Systems
Режим : 16
Параметр Endianness формата : Big
Идентификатор кодека : A_DTS
Продолжительность : 1 ч. 33 м.
Вид битрейта : Постоянный
Битрейт : 1510 Кбит/сек
Каналы : 6 каналов
Расположение каналов : Front: L C R, Side: L R, LFE
Частота : 48,0 КГц
Битовая глубина : 24 бит
Метод сжатия : С потерями
Размер потока : 1005 Мбайт (12%)
Язык : Russian
Default : Да
Forced : Нет
Аудио #2
Идентификатор : 3
Формат : DTS
Формат/Информация : Digital Theater Systems
Режим : 16
Параметр Endianness формата : Big
Идентификатор кодека : A_DTS
Продолжительность : 1 ч. 33 м.
Вид битрейта : Постоянный
Битрейт : 1509 Кбит/сек
Каналы : 6 каналов
Расположение каналов : Front: L C R, Side: L R, LFE
Частота : 48,0 КГц
Битовая глубина : 24 бит
Метод сжатия : С потерями
Размер потока : 1004 Мбайт (12%)
Язык : English
Default : Нет
Forced : Нет

Скриншоты

Скачать

Скачать торрент!

Как скачивать? · Что такое торрент? · Рейтинг и ограничения

Сайт не распространяет и не хранит электронные версии произведений, а лишь предоставляет доступ к создаваемому пользователями каталогу ссылок на торрент-файлы, которые содержат только списки хеш-сумм

[Профиль] [ЛС]
Показать сообщения:    
Ответить на тему

Текущее время: Сегодня 20:18

Часовой пояс: GMT + 4



Вы не можете начинать темы
Вы не можете отвечать на сообщения
Вы не можете редактировать свои сообщения
Вы не можете удалять свои сообщения
Вы не можете голосовать в опросах
Вы не можете прикреплять файлы к сообщениям
Вы не можете скачивать файлы