Хэллоуин в Ужасвилле / Канун дня всех святых / All Hallows\' Eve (Дэмиен Леоне / Damien Leone) [2013, США, Ужасы, WEB-DLRip-AVC] DVO [DeadSno & den904]

Ответить на тему
 
Автор Сообщение

user ®

Стаж: 7 лет 7 месяцев

Сообщений: 20008

Пост Пост: #1 от 13-Ноя-2013 17:00

[Цитировать]

Хэллоуин в Ужасвилле / Канун дня всех святых / All Hallows' Eve- Страна: США
Студия: Ruthless Pictures
Жанр: Ужасы
Год выпуска: 2013
Продолжительность: 01:22:55
Перевод: Любительский (двухголосый закадровый) [DeadSno & den904] по субтитрам Antonio
Cубтитры: Отсутствуют
Оригинальная аудиодорожка: Присутствует-Режиссер: Дэмиен Леоне / Damien Leone
Дата мировой премьеры: 29 Октября 2013-В ролях: Кэти Магвайр, Майк Джаннелли, Катрин А. Каллахан, Мари Мэйсер, Кайла Лиан, Кристин Евангелиста, Робин Керр, Брэндон Деспейн, Майкл Хмель-Описание: Двое детей, оставленных своими родителями справлять Хэллоуин с подругой их матери, находят в мешке с конфетами старую видеокассету. На кассете записан фильм ужасов... очень странный фильм ужасов, который прорывается в их реальность...- -Дата мировой премьеры: 29 Октября 2013- -Качество видео: WEB-DLRip-AVC
Формат видео: MKV
Видео: MPEG-4 AVC/H.264, 1024x432 (2.40:1), 23.976 fps, 1973 Kbps
Аудио #1: 48 kHz, AC3, 2/0 (L,R) ch, 192 kbps, 16 bits (Русский)
Аудио #2: 48 kHz, AC3, 2/0 (L,R) ch, 192 kbps, 16 bits (Английский)-

Внимание!

MediaInfo

General
Unique ID                                : 184140354917054682342672459797513926930 (0x8A88247114D536B58815C2F3B0647912)
Complete name                            : C:\Новинки\All.Hallows.Eve.2013.WEB-DLRip.mkv
Format                                   : Matroska
Format version                           : Version 4 / Version 2
File size                                : 1.37 GiB
Duration                                 : 1h 23mn
Overall bit rate                         : 2 355 Kbps
Encoded date                             : UTC 2013-10-31 08:50:15
Writing application                      : mkvmerge v6.1.0 ('Old Devil') built on Mar  4 2013 09:10:42
Writing library                          : libebml v1.3.0 + libmatroska v1.4.0
Video
ID                                       : 1
Format                                   : AVC
Format/Info                              : Advanced Video Codec
Format profile                           : High@L4.1
Format settings, CABAC                   : Yes
Format settings, ReFrames                : 9 frames
Codec ID                                 : V_MPEG4/ISO/AVC
Duration                                 : 1h 23mn
Bit rate                                 : 1 973 Kbps
Width                                    : 1 024 pixels
Height                                   : 432 pixels
Display aspect ratio                     : 2.40:1
Frame rate mode                          : Constant
Frame rate                               : 23.976 fps
Color space                              : YUV
Chroma subsampling                       : 4:2:0
Bit depth                                : 8 bits
Scan type                                : Progressive
Bits/(Pixel*Frame)                       : 0.186
Stream size                              : 1.12 GiB (82%)
Writing library                          : x264 core 130 r2273 b3065e6
Encoding settings                        : cabac=1 / ref=9 / deblock=1:-1:-1 / analyse=0x3:0x133 / me=umh / subme=9 / psy=1 / psy_rd=1.00:0.20 / mixed_ref=1 / me_range=32 / chroma_me=1 / trellis=2 / 8x8dct=1 / cqm=0 / deadzone=21,11 / fast_pskip=0 / chroma_qp_offset=-3 / threads=9 / lookahead_threads=1 / sliced_threads=0 / nr=0 / decimate=0 / interlaced=0 / bluray_compat=0 / constrained_intra=0 / bframes=8 / b_pyramid=2 / b_adapt=2 / b_bias=0 / direct=3 / weightb=1 / open_gop=0 / weightp=2 / keyint=250 / keyint_min=23 / scenecut=40 / intra_refresh=0 / rc_lookahead=60 / rc=2pass / mbtree=1 / bitrate=1973 / ratetol=1.0 / qcomp=0.60 / qpmin=0 / qpmax=69 / qpstep=4 / cplxblur=20.0 / qblur=0.5 / ip_ratio=1.40 / aq=1:1.00
Language                                 : English
Default                                  : Yes
Forced                                   : No
Audio #1
ID                                       : 2
Format                                   : AC-3
Format/Info                              : Audio Coding 3
Mode extension                           : CM (complete main)
Format settings, Endianness              : Big
Codec ID                                 : A_AC3
Duration                                 : 1h 23mn
Bit rate mode                            : Constant
Bit rate                                 : 192 Kbps
Channel count                            : 2 channels
Channel positions                        : Front: L R
Sampling rate                            : 48.0 KHz
Bit depth                                : 16 bits
Compression mode                         : Lossy
Stream size                              : 114 MiB (8%)
Title                                    : den904 & DeadSno
Language                                 : Russian
Default                                  : Yes
Forced                                   : No
Audio #2
ID                                       : 3
Format                                   : AC-3
Format/Info                              : Audio Coding 3
Mode extension                           : CM (complete main)
Format settings, Endianness              : Big
Codec ID                                 : A_AC3
Duration                                 : 1h 23mn
Bit rate mode                            : Constant
Bit rate                                 : 192 Kbps
Channel count                            : 2 channels
Channel positions                        : Front: L R
Sampling rate                            : 48.0 KHz
Bit depth                                : 16 bits
Compression mode                         : Lossy
Stream size                              : 114 MiB (8%)
Language                                 : English
Default                                  : No
Forced                                   : No

Скриншот c названием фильма

Скриншоты

-
Скачать

Скачать торрент!

Как скачивать? · Что такое торрент? · Рейтинг и ограничения

Сайт не распространяет и не хранит электронные версии произведений, а лишь предоставляет доступ к создаваемому пользователями каталогу ссылок на торрент-файлы, которые содержат только списки хеш-сумм

[Профиль] [ЛС]
Показать сообщения:    
Ответить на тему

Текущее время: Сегодня 01:17

Часовой пояс: GMT + 4



Вы не можете начинать темы
Вы не можете отвечать на сообщения
Вы не можете редактировать свои сообщения
Вы не можете удалять свои сообщения
Вы не можете голосовать в опросах
Вы не можете прикреплять файлы к сообщениям
Вы не можете скачивать файлы