Восторг Палуза / Rapture-Palooza (Пол Миддледитч / Paul Middleditch) [2013, США, Фэнтези, комедия, WEB-DLRip] VO [den904]

Ответить на тему
 
Автор Сообщение

user ®

Стаж: 7 лет 7 месяцев

Сообщений: 20008

Пост Пост: #1 от 13-Ноя-2013 02:05

[Цитировать]

Восторг Палуза / Rapture-Palooza- Страна: США
Студия: Mimran Schur Pictures, Mosaic Media Group
Жанр: Фэнтези, комедия
Год выпуска: 2013
Продолжительность: 01:24:53
Перевод: Одноголосый закадровый [den904] по субтитрам Chup
Субтитры: Отсутствуют-Режиссер: Пол Миддледитч / Paul Middleditch
Сценарий: Крис Мэтисон / Chris Matheson
Продюсер: Эд Соломон / Ed Solomon, Крис Фосс / Chris Foss, Крис Мэтисон / Chris Matheson, Дэвид Мимран / David Mimran, Мэтт Райли / Matt Riley
Оператор: Роберт С. Нью / Robert C. New
Композитор: Йоахим Хорсли / Joachim Horsley-В ролях: Анна Кендрик, Кен Жонг, Роб Кордри, Джон Фрэнсис Дейли, Крэйг Робинсон, Томас Леннон, Тайлер Лабайн, Роб Хюбел, Пол Шеер, Кэлам Уорси, Ана Гастейер, Джесси Камачо-Описание: Это веселая история рассказывает о последствиях религиозного апокалипсиса.-Мировая премьера: 7 июня 2013- - -MPAA: R - Лицам до 17 лет обязательно присутствие взрослого-Качество: WEB-DLRip
Контейнер: AVI
Видео: 640x272 (2.35:1), 23.976 fps, XviD build 50, 1016 kbps avg, 0.24 bit/pixel
Аудио: 48 kHz, MPEG Layer 3, 2 ch, 128.00 kbps avg-

Media Info

General
Complete name                            : C:\Новинки\Восторг Палуза.2013.WEB-DLRip.700Mb.avi
Format                                   : AVI
Format/Info                              : Audio Video Interleave
File size                                : 701 MiB
Duration                                 : 1h 24mn
Overall bit rate                         : 1 154 Kbps
Writing application                      : VirtualDubMod 1.5.10.3 | www.virtualdub-fr.org || (build 2550/release)
Writing library                          : VirtualDubMod build 2550/release
Video
ID                                       : 0
Format                                   : MPEG-4 Visual
Format profile                           : Advanced Simple@L5
Format settings, BVOP                    : 2
Format settings, QPel                    : No
Format settings, GMC                     : No warppoints
Format settings, Matrix                  : Default (H.263)
Codec ID                                 : XVID
Codec ID/Hint                            : XviD
Duration                                 : 1h 24mn
Bit rate                                 : 1 017 Kbps
Width                                    : 640 pixels
Height                                   : 272 pixels
Display aspect ratio                     : 2.35:1
Frame rate                               : 23.976 fps
Color space                              : YUV
Chroma subsampling                       : 4:2:0
Bit depth                                : 8 bits
Scan type                                : Progressive
Compression mode                         : Lossy
Bits/(Pixel*Frame)                       : 0.244
Stream size                              : 617 MiB (88%)
Writing library                          : XviD 1.2.1 (UTC 2008-12-04)
Audio
ID                                       : 1
Format                                   : MPEG Audio
Format version                           : Version 1
Format profile                           : Layer 3
Codec ID                                 : 55
Codec ID/Hint                            : MP3
Duration                                 : 1h 24mn
Bit rate mode                            : Constant
Bit rate                                 : 128 Kbps
Channel count                            : 2 channels
Sampling rate                            : 48.0 KHz
Compression mode                         : Lossy
Stream size                              : 77.7 MiB (11%)
Alignment                                : Aligned on interleaves
Interleave, duration                     : 42 ms (1.00 video frame)
Interleave, preload duration             : 504 ms
Writing library                          : LAME3.99r
Encoding settings                        : -m s -V 4 -q 2 -lowpass 17 -b 128

Скриншот с названием фильма

Скриншоты

-
Скачать

Скачать торрент!

Как скачивать? · Что такое торрент? · Рейтинг и ограничения

Сайт не распространяет и не хранит электронные версии произведений, а лишь предоставляет доступ к создаваемому пользователями каталогу ссылок на торрент-файлы, которые содержат только списки хеш-сумм

[Профиль] [ЛС]
Показать сообщения:    
Ответить на тему

Текущее время: Сегодня 23:50

Часовой пояс: GMT + 4



Вы не можете начинать темы
Вы не можете отвечать на сообщения
Вы не можете редактировать свои сообщения
Вы не можете удалять свои сообщения
Вы не можете голосовать в опросах
Вы не можете прикреплять файлы к сообщениям
Вы не можете скачивать файлы