Нападение на Уолл-стрит / Эпоха алчности / Assault on Wall Street / Bailout: The Age of Greed (Уве Болл / Uwe Boll) [2013, Канада, Боевик, триллер, драма, BDRip] MVO (R5)

Ответить на тему
 
Автор Сообщение

user ®

Стаж: 7 лет 7 месяцев

Сообщений: 20008

Пост Пост: #1 от 13-Ноя-2013 02:05

[Цитировать]

Нападение на Уолл-стрит / Эпоха алчности / Assault on Wall Street / Bailout: The Age of Greed- Год выпуска: 2013
Выпущено: Канада / Lynn Peak Productions
Жанр: боевик, триллер, драма
Продолжительность: 01:38:55
Перевод: Профессиональный (многоголосый закадровый) R5 |Лицензия|
Cубтитры: нет-Режиссер:
Уве Болл / Uwe Boll-В ролях:
Доминик Пёрселл (Jim Baxford), Эрин Карплак (Rosie Baxford), Джон Хёрд (Jeremy Stancroft), Эдвард Ферлонг (Sean), Эрик Робертс (Lawyer Patterson), Кит Дэвид (Freddy), Майкл Паре (Frank), Локлин Манро (Robert Canworth), Тайрон Лейтсо (Spalding Smith), Майк Допуд (Tom Allgard)-Описание:
История обычного, среднестатистического жителя Нью-Йорка, с хорошей работой и счастливой семьей. После того, как наступает экономический кризис, он лишается работы и будучи в отчаянии он берет оружие и отправляется мстить за свою испорченную жизнь.-IMDB | КиноПоиск | Сэмпл |-Тип релиза: BDRip [Assault.On.Wall.Street.2013.1080p.BluRay.AVC.DD5.1-PublicHD]
Контейнер: AVI
Видео: 704x400 (1.76:1), 23.976 fps, XviD build 73 ~1714 kbps avg, 0.25 bit/pixel
Аудио: 48 kHz, AC3 Dolby Digital, 3/2 (L,C,R,l,r) + LFE ch, ~384.00 kbps avg
-

Скриншоты

MediaInfo

General
Complete name                            : D:\Napadenie_na_Wall_ Street_2013_BDRip_by_Dalemake.avi
Format                                   : AVI
Format/Info                              : Audio Video Interleave
File size                                : 1.46 GiB
Duration                                 : 1h 38mn
Overall bit rate                         : 2 108 Kbps
Writing application                      : VirtualDubMod 1.5.10.3 | www.virtualdub-fr.org || (build 2550/release)
Writing library                          : VirtualDubMod build 2550/release
Video
ID                                       : 0
Format                                   : MPEG-4 Visual
Format profile                           : Advanced Simple@L5
Format settings, BVOP                    : 1
Format settings, QPel                    : No
Format settings, GMC                     : No warppoints
Format settings, Matrix                  : Custom
Codec ID                                 : XVID
Codec ID/Hint                            : XviD
Duration                                 : 1h 38mn
Bit rate                                 : 1 715 Kbps
Width                                    : 704 pixels
Height                                   : 400 pixels
Display aspect ratio                     : 16:9
Frame rate                               : 23.976 fps
Color space                              : YUV
Chroma subsampling                       : 4:2:0
Bit depth                                : 8 bits
Scan type                                : Progressive
Compression mode                         : Lossy
Bits/(Pixel*Frame)                       : 0.254
Stream size                              : 1.18 GiB (81%)
Writing library                          : XviD 73
Audio
ID                                       : 1
Format                                   : AC-3
Format/Info                              : Audio Coding 3
Mode extension                           : CM (complete main)
Format settings, Endianness              : Big
Codec ID                                 : 2000
Duration                                 : 1h 38mn
Bit rate mode                            : Constant
Bit rate                                 : 384 Kbps
Channel(s)                               : 6 channels
Channel positions                        : Front: L C R, Side: L R, LFE
Sampling rate                            : 48.0 KHz
Bit depth                                : 16 bits
Compression mode                         : Lossy
Stream size                              : 272 MiB (18%)
Alignment                                : Split accross interleaves
Interleave, duration                     : 42 ms (1.00 video frame)
Interleave, preload duration             : 500 ms
-
Скачать

Скачать торрент!

Как скачивать? · Что такое торрент? · Рейтинг и ограничения

Сайт не распространяет и не хранит электронные версии произведений, а лишь предоставляет доступ к создаваемому пользователями каталогу ссылок на торрент-файлы, которые содержат только списки хеш-сумм

[Профиль] [ЛС]
Показать сообщения:    
Ответить на тему

Текущее время: Сегодня 20:11

Часовой пояс: GMT + 4



Вы не можете начинать темы
Вы не можете отвечать на сообщения
Вы не можете редактировать свои сообщения
Вы не можете удалять свои сообщения
Вы не можете голосовать в опросах
Вы не можете прикреплять файлы к сообщениям
Вы не можете скачивать файлы