Охотник за головами / Headhunter (Румле Хаммерих / Rumle Hammerich) [2009, Дания, триллер, BDRip 1080p] VO (Агент Смит) + Original (Dan) + Subs (Rus, Eng)

Ответить на тему
 
Автор Сообщение

user ®

Стаж: 7 лет 7 месяцев

Сообщений: 20008

Пост Пост: #1 от 12-Ноя-2013 20:20

[Цитировать]

Охотник за головами / Headhunter Страна: Дания
Студия: Det Danske Filminstitut, Nordisk Film Valby, ...
Жанр: триллер
Год выпуска: 2009
Продолжительность: 01:47:13
Перевод: Одноголосый закадровый Агент Смит
Cубтитры: английские, русские (SonnyB)
Оригинальная аудиодорожка: датский
Режиссер: Румле Хаммерих / Rumle Hammerich
В ролях: Ларс Миккельсен, Шарлотта Манк, Букхард Форстройтер, Шарлотта Фич, Троэльс Любю, Хенрик Ипсен, Пребен Харрис, Хеннинг Моритцен
Описание:
35-летний Мартин Винге, бывший бизнес-журналист, а теперь успешный рекрутёр, подбирающий топ-персонал для крупных корпораций, человек со сложной судьбой. Однажды Мартину поступает заказ от г-на Зигера — пожилого владельца судоходного и нефтяного скандинавского концерна. Мартин должен подобрать преемника корпорации, способного руководить концерном в новое время и альтернативного собственному сыну и наследнику г-на Зигера — Даниэлю Зигеру.
Взявшись за подбор кандидатов, Мартин вскоре обнаруживает, что у руководства концерна есть и другие планы относительно будущего корпорации. Становясь пешкой в жестокой и алчной игре за власть, Мартин и близкие ему люди становятся заложниками бескомпромиссной схватки.
- ||-Тип релиза: BDRip 1080p (рип от HDS)

Контейнер: MKV
Видео: AVC (x264), 1920x800 (2,40:1) at 24,000 fps, 10500 Кbps, 0.285 bpp
Аудио 1: AC3; 448 Kbps; CBR; 6 ch; 48 khz | VO - Агент Смит |
Аудио 2: DTS; 1536 Kbps; CBR; 6 ch; 48 khz; 24 bit | Датский |
Формат субтитров: softsub (SRT)

Скриншоты || x264 Info || MediaInfo || Notes

Аудио дорожка №1 и русские субтитры взяты с этой [url=http://***/forum/viewtopic.php?t=4329168]раздачи[/url], thx: лорди74

MediaInfo

Общее
Уникальный идентификатор                 : 241838875583959928039600018701421838536 (0xB5F07924F9036BF5A4F51DD1301300C8)
Полное имя                               : Охотник за головами.2009.L1.1080p.BluRay.x264-HDS.mkv
Формат                                   : Matroska
Версия формата                           : Version 4 / Version 2
Размер файла                             : 9,33 Гбайт
Продолжительность                        : 1 ч. 47 м.
Общий поток                              : 12,5 Мбит/сек
Название фильма                          : profile.php?mode=viewprofile&u=22488948
Дата кодирования                         : UTC 2013-10-17 08:18:08
Программа кодирования                    : mkvmerge v6.4.1 ('Omega Point') built on Sep 16 2013 22:05:10
Библиотека кодирования                   : libebml v1.3.0 + libmatroska v1.4.1
Видео
Идентификатор                            : 1
Формат                                   : AVC
Формат/Информация                        : Advanced Video Codec
Профиль формата                          : High@L4.1
Параметр CABAC формата                   : Да
Параметр ReFrames формата                : 5 кадров
Идентификатор кодека                     : V_MPEG4/ISO/AVC
Продолжительность                        : 1 ч. 47 м.
Битрейт                                  : 10,5 Мбит/сек
Ширина                                   : 1920 пикселей
Высота                                   : 800 пикселей
Соотношение сторон                       : 2,40:1
Режим частоты кадров                     : Постоянный
Частота кадров                           : 24,000 кадра/сек
Цветовое пространство                    : YUV
Субдискретизация насыщенности            : 4:2:0
Битовая глубина                          : 8 бит
Тип развёртки                            : Прогрессивная
Бит/(Пиксели*Кадры)                      : 0.285
Размер потока                            : 7,68 Гбайт (82%)
Библиотека кодирования                   : x264 core 129 r2230 1cffe9f
Настройки программы                      : cabac=1 / ref=5 / deblock=1:-3:-3 / analyse=0x3:0x113 / me=umh / subme=10 / psy=1 / psy_rd=1.20:0.00 / mixed_ref=1 / me_range=32 / chroma_me=1 / trellis=2 / 8x8dct=1 / cqm=0 / deadzone=21,11 / fast_pskip=0 / chroma_qp_offset=-2 / threads=12 / lookahead_threads=2 / sliced_threads=0 / nr=0 / decimate=1 / interlaced=0 / bluray_compat=0 / constrained_intra=0 / bframes=9 / b_pyramid=2 / b_adapt=2 / b_bias=0 / direct=3 / weightb=1 / open_gop=0 / weightp=2 / keyint=250 / keyint_min=23 / scenecut=40 / intra_refresh=0 / rc=2pass / mbtree=0 / bitrate=10500 / ratetol=1.0 / qcomp=0.60 / qpmin=0 / qpmax=69 / qpstep=4 / cplxblur=20.0 / qblur=0.5 / ip_ratio=1.40 / pb_ratio=1.30 / aq=1:1.10
Язык                                     : English
Default                                  : Да
Forced                                   : Нет
Аудио #1
Идентификатор                            : 2
Формат                                   : AC-3
Формат/Информация                        : Audio Coding 3
Расширение режима                        : CM (complete main)
Параметр Endianness формата              : Big
Идентификатор кодека                     : A_AC3
Продолжительность                        : 1 ч. 47 м.
Вид битрейта                             : Постоянный
Битрейт                                  : 448 Кбит/сек
Каналы                                   : 6 каналов
Расположение каналов                     : Front: L C R, Side: L R, LFE
Частота                                  : 48,0 КГц
Битовая глубина                          : 16 бит
Метод сжатия                             : С потерями
Размер потока                            : 344 Мбайт (4%)
Заголовок                                : VO [Агент Смит]
Язык                                     : Russian
Default                                  : Да
Forced                                   : Нет
Аудио #2
Идентификатор                            : 3
Формат                                   : DTS
Формат/Информация                        : Digital Theater Systems
Режим                                    : 16
Параметр Endianness формата              : Big
Идентификатор кодека                     : A_DTS
Продолжительность                        : 1 ч. 47 м.
Вид битрейта                             : Постоянный
Битрейт                                  : 1509 Кбит/сек
Каналы                                   : 6 каналов
Расположение каналов                     : Front: L C R, Side: L R, LFE
Частота                                  : 48,0 КГц
Битовая глубина                          : 24 бит
Метод сжатия                             : С потерями
Размер потока                            : 1,13 Гбайт (12%)
Язык                                     : Danish
Default                                  : Нет
Forced                                   : Нет
Текст #1
Идентификатор                            : 4
Формат                                   : UTF-8
Идентификатор кодека                     : S_TEXT/UTF8
Идентификатор кодека/Информация          : UTF-8 Plain Text
Язык                                     : English
Default                                  : Нет
Forced                                   : Нет
Текст #2
Идентификатор                            : 5
Формат                                   : UTF-8
Идентификатор кодека                     : S_TEXT/UTF8
Идентификатор кодека/Информация          : UTF-8 Plain Text
Заголовок                                : [SonnyB]
Язык                                     : Russian
Default                                  : Нет
Forced                                   : Нет
Меню
00:00:00.000                             : en:THE SICK CHILD
00:08:30.000                             : en:THE CONTRACT
00:16:39.000                             : en:NO ACCIDENT
00:22:25.000                             : en:DANIEL
00:35:31.000                             : en:KELLER CORPSES
00:44:11.000                             : en:SOLITUDE
00:49:56.000                             : en:DIRTY GAME
00:55:50.000                             : en:TARGET
01:10:00.000                             : en:TREASON
01:16:05.000                             : en:NO RETURN
01:23:02.000                             : en:HOME VISIT
01:30:32.000                             : en:THE LAST DEAL
01:37:40.000                             : en:ARMSTRONG 2001
01:44:24.000                             : en:CREDITS

x264 Info

x264 [info]: frame I:1030 Avg QP:13.97 size:202187
x264 [info]: frame P:36397 Avg QP:15.52 size: 83787
x264 [info]: frame B:116964 Avg QP:17.82 size: 44314
Скачать

Скачать торрент!

Как скачивать? · Что такое торрент? · Рейтинг и ограничения

Сайт не распространяет и не хранит электронные версии произведений, а лишь предоставляет доступ к создаваемому пользователями каталогу ссылок на торрент-файлы, которые содержат только списки хеш-сумм

[Профиль] [ЛС]
Показать сообщения:    
Ответить на тему

Текущее время: Сегодня 14:35

Часовой пояс: GMT + 4



Вы не можете начинать темы
Вы не можете отвечать на сообщения
Вы не можете редактировать свои сообщения
Вы не можете удалять свои сообщения
Вы не можете голосовать в опросах
Вы не можете прикреплять файлы к сообщениям
Вы не можете скачивать файлы