Князь тьмы / Prince of Darkness (Джон Карпентер / John Carpenter) [1987, США, ужасы, BDRip 720p] MVO + AVO (Визгунов) + AVO (Дохалов) + Sub Eng, Rus + Original Eng

Ответить на тему
 
Автор Сообщение

user ®

Стаж: 7 лет 7 месяцев

Сообщений: 20008

Пост Пост: #1 от 12-Ноя-2013 20:20

[Цитировать]

-Князь тьмы / Prince of Darkness-Страна: США
Студия: Alive Films, Larry Franco Productions
Жанр: ужасы
Год выпуска: 1987
Продолжительность: 1:41:38-Перевод: Профессиональный (многоголосый закадровый)
Перевод 2: Авторский (одноголосый закадровый) Визгунов
Перевод 3: Авторский (одноголосый закадровый) Дохалов
Cубтитры: английские, русские
Оригинальная аудиодорожка: английский-Режиссер: Джон Карпентер / John Carpenter
В ролях: Дональд Плезенс, Джеймисон Паркер, Виктор Вонг, Лиза Блаунт, Деннис Дун, Сьюзэн Блэнчард, Энн Мари Ховард, Энн Йен, Кен Райт, Дирк Блокер-Описание: Группа ученых-исследователей во время изучения заброшенной церкви находит необычный сосуд. С помощью рентгеновских лучей им удается определить, что сосуду около 7 миллионов лет и, что самое интересное, его можно открыть только изнутри. В нем находится некая непонятная субстанция: жидкий алмаз, созданный какой-то таинственной силой. В древней рукописи говорится, что в этом алмазе покоится сам Сатана или его дух. В результате экспериментов дьявольская сила, высвободившись из сосуда и рассеявшись в пространстве, начинает вселяться в исследователей, превращая их в рабов Сатаны.-Сэмпл: http://yadi.sk/d/54rad4b5CXNdK-Тип релиза: BDRip 720p
Контейнер: MKV
Видео: MPEG-4 AVC ~7929 Kbps 1280x544 p / 23,976 fps / High Profile 4.1
Аудио 1: Russian DD 5.1 48 kHz 448 kbps MVO
Аудио 2: Russian DTS 5.1 48 kHz 1509 kbps / 24-bit Визгунов
Аудио 3: Russian DTS 5.1 48 kHz 1509 kbps / 24-bit Дохалов
Аудио 4: English DTS 5.1 48 kHz 1509 kbps / 24-bit
Формат субтитров: softsub (SRT)

Видеоряд от DON

Prince of Darkness 1987 720p BluRay DD5.1 x264-DON
RUNTIME.......: 1h 41mnSIZE..........: 6.29 GiBVIDEO CODEC...: x264, CRF 16.0, L4.1FRAMERATE.....: 23.976 fpsBITRATE.......: 7 929 KbpsRESOLUTION....: 1280x544AUDIO ........: English 5.1ch AC-3 @ 640 KbpsAUDIO 2 ......: English 2.0ch AAC (Commentary - By Director John Carpenter and actor Peter Jason)SUBTITLES.....: English,GreekCHAPTERS/NAMED: Yes / NoSOURCE........: Prince of Darkness 1987 1080p Blu-ray AVC DTS-HD MA 5.1 (thanks!)
x264 info
profile High, level 4.1x264 [info]: frame I:934 Avg QP:14.31 size:110756x264 [info]: frame P:25459 Avg QP:15.78 size: 64046x264 [info]: frame B:119790 Avg QP:18.19 size: 36985x264 [info]: consecutive B-frames: 0.9% 0.9% 3.1% 8.3% 11.1% 50.2% 9.1% 3.2% 5.5% 2.2% 2.7% 2.9%x264 [info]: kb/s:8088.47encoded 146183 frames, 2.83 fps, 8088.47 kb/s, duration 14:20:13.09Source/DON/saMMie(1280x720)


MI

General
Complete name                    : X:\  -= Фильмы =-\Князь тьмы (1987. Prince of Darkness).mkv
Format                           : Matroska
File size                        : 9.28 GiB
Duration                         : 1h 41mn
Overall bit rate                 : 13.1 Mbps
Movie name                       : Release for
Encoded date                     : UTC 2013-11-11 18:24:32
Writing application              : mkvmerge v4.9.1 ('Ich will') сборка от Jul 11 2011 23:53:15
Writing library                  : libebml v1.2.1 + libmatroska v1.1.1
Video
ID                               : 1
Format                           : AVC
Format/Info                      : Advanced Video Codec
Format profile                   : High@L4.1
Format settings, CABAC           : Yes
Format settings, ReFrames        : 12 frames
Muxing mode                      : Container profile=Unknown@4.1
Codec ID                         : V_MPEG4/ISO/AVC
Duration                         : 1h 41mn
Bit rate                         : 7 829 Kbps
Width                            : 1 280 pixels
Height                           : 544 pixels
Display aspect ratio             : 2.35:1
Frame rate                       : 23.976 fps
Color space                      : YUV
Chroma subsampling               : 4:2:0
Bit depth                        : 8 bits
Scan type                        : Progressive
Bits/(Pixel*Frame)               : 0.469
Stream size                      : 5.56 GiB (60%)
Writing library                  : x264 core 138 r2358kMod 9e941d1
Encoding settings                : cabac=1 / ref=12 / deblock=1:-3:-3 / analyse=0x3:0x133 / me=tesa / subme=10 / psy=1 / fade_compensate=0.00 / psy_rd=0.95:0.00 / mixed_ref=1 / me_range=32 / chroma_me=1 / trellis=2 / 8x8dct=1 / cqm=0 / deadzone=21,11 / fast_pskip=0 / chroma_qp_offset=-2 / threads=12 / lookahead_threads=3 / sliced_threads=0 / nr=0 / decimate=1 / interlaced=0 / bluray_compat=0 / constrained_intra=0 / bframes=11 / b_pyramid=2 / b_adapt=2 / b_bias=0 / direct=3 / weightb=1 / open_gop=0 / weightp=2 / keyint=241 / keyint_min=23 / scenecut=40 / intra_refresh=0 / rc_lookahead=60 / rc=crf / mbtree=0 / crf=16.0000 / qcomp=0.60 / qpmin=0 / qpmax=69 / qpstep=4 / vbv_maxrate=50000 / vbv_bufsize=62500 / crf_max=0.0 / nal_hrd=none / ip_ratio=1.40 / pb_ratio=1.30 / aq=1:0.70
Language                         : English
Audio #1
ID                               : 2
Format                           : AC-3
Format/Info                      : Audio Coding 3
Mode extension                   : CM (complete main)
Codec ID                         : A_AC3
Duration                         : 1h 41mn
Bit rate mode                    : Constant
Bit rate                         : 448 Kbps
Channel(s)                       : 6 channels
Channel positions                : Front: L C R, Side: L R, LFE
Sampling rate                    : 48.0 KHz
Bit depth                        : 16 bits
Stream size                      : 326 MiB (3%)
Title                            : MVO
Language                         : Russian
Audio #2
ID                               : 3
Format                           : DTS
Format/Info                      : Digital Theater Systems
Codec ID                         : A_DTS
Duration                         : 1h 41mn
Bit rate mode                    : Constant
Bit rate                         : 1 510 Kbps
Channel(s)                       : 6 channels
Channel positions                : Front: L C R, Side: L R, LFE
Sampling rate                    : 48.0 KHz
Bit depth                        : 24 bits
Stream size                      : 1.07 GiB (12%)
Title                            : Сергей Визгунов
Language                         : Russian
Audio #3
ID                               : 4
Format                           : DTS
Format/Info                      : Digital Theater Systems
Codec ID                         : A_DTS
Duration                         : 1h 41mn
Bit rate mode                    : Constant
Bit rate                         : 1 510 Kbps
Channel(s)                       : 6 channels
Channel positions                : Front: L C R, Side: L R, LFE
Sampling rate                    : 48.0 KHz
Bit depth                        : 24 bits
Stream size                      : 1.07 GiB (12%)
Title                            : Вартан Дохалов
Audio #4
ID                               : 5
Format                           : DTS
Format/Info                      : Digital Theater Systems
Codec ID                         : A_DTS
Duration                         : 1h 41mn
Bit rate mode                    : Constant
Bit rate                         : 1 510 Kbps
Channel(s)                       : 6 channels
Channel positions                : Front: L C R, Side: L R, LFE
Sampling rate                    : 48.0 KHz
Bit depth                        : 24 bits
Stream size                      : 1.07 GiB (12%)
Language                         : English
Text #1
ID                               : 6
Format                           : UTF-8
Codec ID                         : S_TEXT/UTF8
Codec ID/Info                    : UTF-8 Plain Text
Language                         : Russian
Text #2
ID                               : 7
Format                           : UTF-8
Codec ID                         : S_TEXT/UTF8
Codec ID/Info                    : UTF-8 Plain Text
Language                         : English
Menu
00:00:00.000                     : en:Chapter 1
00:10:27.627                     : en:Chapter 2
00:18:34.113                     : en:Chapter 3
00:25:00.123                     : en:Chapter 4
00:33:07.610                     : en:Chapter 5
00:40:40.438                     : en:Chapter 6
00:47:54.079                     : en:Chapter 7
00:55:27.949                     : en:Chapter 8
01:02:02.343                     : en:Chapter 9
01:09:38.799                     : en:Chapter 10
01:17:06.622                     : en:Chapter 11
01:24:24.059                     : en:Chapter 12

Скриншоты


Скачать

Скачать торрент!

Как скачивать? · Что такое торрент? · Рейтинг и ограничения

Сайт не распространяет и не хранит электронные версии произведений, а лишь предоставляет доступ к создаваемому пользователями каталогу ссылок на торрент-файлы, которые содержат только списки хеш-сумм

[Профиль] [ЛС]
Показать сообщения:    
Ответить на тему

Текущее время: Сегодня 13:35

Часовой пояс: GMT + 4



Вы не можете начинать темы
Вы не можете отвечать на сообщения
Вы не можете редактировать свои сообщения
Вы не можете удалять свои сообщения
Вы не можете голосовать в опросах
Вы не можете прикреплять файлы к сообщениям
Вы не можете скачивать файлы