Виолет и Дейзи / Violet & Daisy (Джеффри Флетчер / Geoffrey Fletcher) [2011, США, драма, криминал, BDRip 720p] [GER Transfer] Dub + Original (Eng) + Sub (Eng)

Ответить на тему
 
Автор Сообщение

user ®

Стаж: 7 лет 7 месяцев

Сообщений: 20008

Пост Пост: #1 от 12-Ноя-2013 20:20

[Цитировать]

Виолет и Дейзи / Violet & Daisy Страна: США
Студия: Magic Violet
Жанр: драма, криминал
Год выпуска: 2011
Продолжительность: 01:28:02
Перевод: Профессиональный (дублированный) R5
Cубтитры: английские, английские (SDH)
Оригинальная аудиодорожка: английский
Режиссер: Джеффри Флетчер / Geoffrey Fletcher
В ролях: Сирша Ронан, Алексис Бледел, Джеймс Гандольфини, Марианн Жан-Баптист, Дэнни Трехо, Татьяна Маслани, Джон Вентимилья, Стю «Ладж» Райли, Невилл Арчамбо, Кристофер Джон Гомбос
Описание:
Две подружки — Фиалка и Маргаритка — плевать хотели на всякие там законы и правила. Если они чего-нибудь хотят, то обязательно это получат, даже если ради этого придется кого-нибудь убить. Кстати, именно такой способ заработать кажется девчонкам довольно простым — но до поры до времени…
- ||-Тип релиза: BDRip 720p (рип от EbP)

Контейнер: MKV
Видео: AVC (x264), 1280x534 (2,40:1) at 24,000 fps, 6843 Кbps, 0.417 bpp
Аудио 1: AC3; 192 Kbps; CBR; 2 ch; 48 khz | Дубляж |
Аудио 2: AC3; 640 Kbps; CBR; 6 ch; 48 khz | Английский |
Формат субтитров: softsub (SRT)

Скриншоты || x264 Info || MediaInfo || Notes

Аудио дорожка №1 взята с этой [url=http://***/forum/viewtopic.php?t=4497619]раздачи[/url], thx: vlaa8
6-ти канальный дубляж на DVD был дутый: в центральный канал намешали "прибитую" кашу из фронтов - по этому был взят DD 2.0
Английские субтитры и главы, взяты с Violet And Daisy 2011 BluRay 1080p AVC DTS-HD MA5.1-CHDBits
-
AutoDLF and FillMargins used.

MediaInfo

Общее
Уникальный идентификатор                 : 238309097533862741603984457799393782145 (0xB348A9A6728BCCA7B22BC6B728E6A981)
Полное имя                               : Виолет и Дейзи.2011.D.720p.BluRay.x264-EbP.mkv
Формат                                   : Matroska
Версия формата                           : Version 4 / Version 2
Размер файла                             : 4,72 Гбайт
Продолжительность                        : 1 ч. 28 м.
Общий поток                              : 7671 Кбит/сек
Название фильма                          : Violet & Daisy [720p] [2011] Dub
Дата кодирования                         : UTC 2013-11-12 00:56:58
Программа кодирования                    : mkvmerge v6.5.0 ('Isn't she lovely') built on Oct 20 2013 12:50:05
Библиотека кодирования                   : libebml v1.3.0 + libmatroska v1.4.1
Видео
Идентификатор                            : 1
Формат                                   : AVC
Формат/Информация                        : Advanced Video Codec
Профиль формата                          : High@L4.1
Параметр CABAC формата                   : Да
Параметр ReFrames формата                : 12 кадров
Идентификатор кодека                     : V_MPEG4/ISO/AVC
Продолжительность                        : 1 ч. 28 м.
Битрейт                                  : 6843 Кбит/сек
Ширина                                   : 1280 пикселей
Высота                                   : 534 пикселя
Соотношение сторон                       : 2,40:1
Режим частоты кадров                     : Постоянный
Частота кадров                           : 24,000 кадра/сек
Цветовое пространство                    : YUV
Субдискретизация насыщенности            : 4:2:0
Битовая глубина                          : 8 бит
Тип развёртки                            : Прогрессивная
Бит/(Пиксели*Кадры)                      : 0.417
Размер потока                            : 4,11 Гбайт (87%)
Заголовок                                : profile.php?mode=viewprofile&u=22488948
Библиотека кодирования                   : x264 core 138 r2359+704+48 3f879a0 tMod [8-bit@all X86_64]
Настройки программы                      : cabac=1 / ref=12 / deblock=1:-3:-3 / analyse=0x3:0x133 / me=umh / subme=9 / psy=1 / fade_compensate=0.00 / psy_rd=1.05:0.02 / mixed_ref=1 / me_range=16 / chroma_me=1 / trellis=2 / 8x8dct=1 / cqm=0 / deadzone=21,11 / fast_pskip=0 / chroma_qp_offset=-3 / threads=12 / lookahead_threads=2 / sliced_threads=0 / nr=0 / decimate=0 / interlaced=0 / bluray_compat=0 / constrained_intra=0 / fgo=0 / bframes=9 / b_pyramid=2 / b_adapt=2 / b_bias=0 / direct=3 / weightb=1 / open_gop=0 / weightp=2 / keyint=250 / keyint_min=24 / scenecut=40 / intra_refresh=0 / rc=2pass / mbtree=0 / bitrate=6843 / ratetol=1.0 / qcomp=0.60 / qpmin=0:0:0 / qpmax=69:69:69 / qpstep=4 / cplxblur=20.0 / qblur=0.5 / ip_ratio=1.40 / pb_ratio=1.30 / aq=3:0.85 / aq-sensitivity=10.00 / aq-factor=1.00:1.00:1.00 / aq2=0 / aq3=0
Язык                                     : English
Default                                  : Да
Forced                                   : Нет
Коэффициенты матрицы                     : BT.709
Аудио #1
Идентификатор                            : 2
Формат                                   : AC-3
Формат/Информация                        : Audio Coding 3
Расширение режима                        : CM (complete main)
Параметр Endianness формата              : Big
Идентификатор кодека                     : A_AC3
Продолжительность                        : 1 ч. 28 м.
Вид битрейта                             : Постоянный
Битрейт                                  : 192 Кбит/сек
Каналы                                   : 2 канала
Расположение каналов                     : Front: L R
Частота                                  : 48,0 КГц
Битовая глубина                          : 16 бит
Метод сжатия                             : С потерями
Размер потока                            : 121 Мбайт (3%)
Заголовок                                : Dub
Язык                                     : Russian
Default                                  : Да
Forced                                   : Нет
Аудио #2
Идентификатор                            : 3
Формат                                   : AC-3
Формат/Информация                        : Audio Coding 3
Расширение режима                        : CM (complete main)
Параметр Endianness формата              : Big
Идентификатор кодека                     : A_AC3
Продолжительность                        : 1 ч. 28 м.
Вид битрейта                             : Постоянный
Битрейт                                  : 640 Кбит/сек
Каналы                                   : 6 каналов
Расположение каналов                     : Front: L C R, Side: L R, LFE
Частота                                  : 48,0 КГц
Битовая глубина                          : 16 бит
Метод сжатия                             : С потерями
Размер потока                            : 403 Мбайт (8%)
Язык                                     : English
Default                                  : Нет
Forced                                   : Нет
Текст #1
Идентификатор                            : 4
Формат                                   : UTF-8
Идентификатор кодека                     : S_TEXT/UTF8
Идентификатор кодека/Информация          : UTF-8 Plain Text
Язык                                     : English
Default                                  : Нет
Forced                                   : Нет
Текст #2
Идентификатор                            : 5
Формат                                   : UTF-8
Идентификатор кодека                     : S_TEXT/UTF8
Идентификатор кодека/Информация          : UTF-8 Plain Text
Заголовок                                : SDH
Язык                                     : English
Default                                  : Нет
Forced                                   : Нет
Меню
00:00:00.000                             : en:Chapter 1
00:11:27.673                             : en:Chapter 2
00:16:18.589                             : en:Chapter 3
00:27:18.214                             : en:Chapter 4
00:28:10.590                             : en:Chapter 5
00:52:10.214                             : en:Chapter 6
00:59:10.256                             : en:Chapter 7
01:02:28.214                             : en:Chapter 8
01:09:07.006                             : en:Chapter 9
01:20:58.881                             : en:Chapter 10

x264 Info

x264 [info]: frame I:1062 Avg QP:11.21 size:154079
x264 [info]: frame P:26050 Avg QP:13.25 size: 64850
x264 [info]: frame B:99657 Avg QP:14.83 size: 26711
x264 [info]: consecutive B-frames: 2.1% 1.5% 7.7% 11.9% 17.5% 49.6% 5.4% 1.4% 1.8% 1.1%
Скачать

Скачать торрент!

Как скачивать? · Что такое торрент? · Рейтинг и ограничения

Сайт не распространяет и не хранит электронные версии произведений, а лишь предоставляет доступ к создаваемому пользователями каталогу ссылок на торрент-файлы, которые содержат только списки хеш-сумм

[Профиль] [ЛС]
Показать сообщения:    
Ответить на тему

Текущее время: Сегодня 19:21

Часовой пояс: GMT + 4



Вы не можете начинать темы
Вы не можете отвечать на сообщения
Вы не можете редактировать свои сообщения
Вы не можете удалять свои сообщения
Вы не можете голосовать в опросах
Вы не можете прикреплять файлы к сообщениям
Вы не можете скачивать файлы