Охотники за привидениями / GhostBusters (Айвен Райтман / Ivan Reitman) [1984, США, фантастика, комедия, BDRip 720p] [4K Remastered] Dub + 4xMVO + 5xAVO + Original eng + Sub rus, eng

Ответить на тему
 
Автор Сообщение

user ®

Стаж: 7 лет 7 месяцев

Сообщений: 20008

Пост Пост: #1 от 12-Ноя-2013 20:20

[Цитировать]

Охотники за привидениями / GhostBusters
Страна: США
Жанр: фантастика, комедия
Год выпуска: 1984
Продолжительность: 1:45:08
Перевод#1: Профессиональный (многоголосый закадровый) | BD EUR
Перевод#2: Авторский (одноголосый закадровый), Ю. Живов
Перевод#3: Профессиональный (дублированный) | Варус Видео (отдельно)
Переводы#4-6: Профессиональный (многоголосый закадровый) | ОРТ, РТР, Ren TV (отдельно)
Переводы#7-10: Авторский (одноголосый закадровый), А. Михалев, Г. Либергал, В. Горчаков (отдельно)
Cубтитры: русские, английские
Оригинальная аудиодорожка: английский
Режиссер: Айвен Райтман / Ivan Reitman
В ролях: Билл Мюррей, Дэн Эйкройд, Сигурни Уивер, Харольд Рэмис, Рик Морэнис, Энни Поттс, Уильям Этертон, Эрни Хадсон, Дэвид Маргулис, Стивен Тэш
Описание: В конце двадцатого века оказывается, что в Нью Йорке живут не только обычные граждане, но и... привидения. И даже его многомиллионное население не может противостоять натиску сверхъестественного
В конце концов на пути бесчисленных монстров не остается никого - кроме троих ученых-парапсихологов, которым известно все о потустороннем мире, правда только в теории. И теперь им придется оставить пыльные кабинеты и применить свои знания на практике...

Тип релиза: BDRip 720p (от CRiSC) | sample
Контейнер: MKV
Видео кодек: x264
Видео: AVC 1280x536 (2.40:1), 23.976 fps, ~12500 Kbps, 0.76 bit/pixel
Аудио #1: Russian AC3 6ch 48kHz 640Kbps | MVO BD EUR
Аудио #2: Russian AC3 6ch 48kHz 640Kbps | AVO Живов
Аудио #3: English AC3 6ch 48kHz 640Kbps | Original
Аудио #4: English Vorbis 2ch ~80Kbps | Commentary-Аудио #5: Russian AC3 2ch 48kHz 192Kbps | Dub Варус Видео (отдельным файлом)
Аудио #6: Russian AC3 6ch 48kHz 448Kbps | MVO ОРТ (отдельным файлом)
Аудио #7: Russian AC3 2ch 48kHz 192Kbps | MVO РТР (отдельным файлом)
Аудио #8: Russian AC3 2ch 48kHz 192Kbps | MVO Ren TV (отдельным файлом)
Аудио #9: Russian AC3 6ch 48kHz 192Kbps | AVO Михалев (отдельным файлом)
Аудио #10: Russian AC3 6ch 48kHz 448Kbps | AVO Либергал (отдельным файлом)
Аудио #11: Russian AC3 6ch 48kHz 448Kbps | AVO Горчаков, поздний (отдельным файлом)
Аудио #12: Russian AC3 6ch 48kHz 192Kbps | AVO Горчаков, ранний (отдельным файлом)
Формат субтитров: softsub (SRT)
Главы: есть, подписаны

MediaInfo | x264

x264

x264 [info]: profile High, level 4.1
x264 [info]: frame I:1111 Avg QP:15.78 size:172461
x264 [info]: frame P:30578 Avg QP:17.76 size: 96422
x264 [info]: frame B:119559 Avg QP:19.63 size: 56115
x264 [info]: consecutive B-frames: 1.6% 2.1% 4.9% 19.0% 17.1% 35.2% 8.5% 8.4% 3.1%
encoded 151248 frames, 3.20 fps, 12490.33 kb/s
General
Complete name : E:\...\Ghostbusters.1984.4k.Remaster.720p.BluRay.DD5.1.Rus.Eng-CRiSC.mkv
Format : Matroska
Format version : Version 4 / Version 2
File size : 10.6 GiB
Duration : 1h 45mn
Overall bit rate mode : Variable
Overall bit rate : 14.5 Mbps
Movie name : Ghostbusters.1984.4k.Remaster.720p.BluRay.DD5.1.Rus.Eng-CRiSC
Encoded date : UTC 2013-11-11 23:23:03
Writing application : mkvmerge v6.2.0 ('Promised Land') built on Apr 28 2013 12:22:01
Writing library : libebml v1.3.0 + libmatroska v1.4.0
Video
ID : 1
Format : AVC
Format/Info : Advanced Video Codec
Format profile : High@L4.1
Format settings, CABAC : Yes
Format settings, ReFrames : 12 frames
Codec ID : V_MPEG4/ISO/AVC
Bit rate : 12.5 Mbps
Width : 1 280 pixels
Height : 536 pixels
Display aspect ratio : 2.40:1
Frame rate mode : Variable
Original frame rate : 23.976 fps
Color space : YUV
Chroma subsampling : 4:2:0
Bit depth : 8 bits
Scan type : Progressive
Bits/(Pixel*Frame) : 0.760
Title : CRiSC
Writing library : x264 core 133 r2334kMod a3ac64b
Encoding settings : cabac=1 / ref=12 / deblock=1:-3:-3 / analyse=0x3:0x133 / me=tesa / subme=11 / psy=1 / fade_compensate=0.00 / psy_rd=0.90:0.00 / mixed_ref=1 / me_range=24 / chroma_me=1 / trellis=2 / 8x8dct=1 / cqm=0 / deadzone=21,11 / fast_pskip=0 / chroma_qp_offset=-2 / threads=12 / lookahead_threads=2 / sliced_threads=0 / nr=0 / decimate=0 / interlaced=0 / bluray_compat=0 / constrained_intra=0 / bframes=8 / b_pyramid=2 / b_adapt=2 / b_bias=0 / direct=3 / weightb=1 / open_gop=0 / weightp=2 / keyint=250 / keyint_min=23 / scenecut=40 / intra_refresh=0 / rc_lookahead=40 / rc=2pass / mbtree=0 / bitrate=12500 / ratetol=1.0 / qcomp=0.65 / qpmin=0 / qpmax=69 / qpstep=4 / cplxblur=20.0 / qblur=0.5 / vbv_maxrate=50000 / vbv_bufsize=62500 / nal_hrd=none / ip_ratio=1.35 / pb_ratio=1.25 / aq=2:0.65
Language : English
Default : Yes
Forced : No
Color primaries : BT.709
Transfer characteristics : BT.709
Matrix coefficients : BT.709
Audio #1
ID : 2
Format : AC-3
Format/Info : Audio Coding 3
Mode extension : CM (complete main)
Format settings, Endianness : Big
Codec ID : A_AC3
Duration : 1h 45mn
Bit rate mode : Constant
Bit rate : 640 Kbps
Channel(s) : 6 channels
Channel positions : Front: L C R, Side: L R, LFE
Sampling rate : 48.0 KHz
Bit depth : 16 bits
Compression mode : Lossy
Stream size : 481 MiB (4%)
Title : MVO BD EUR
Language : Russian
Default : Yes
Forced : No
Audio #2
ID : 3
Format : AC-3
Format/Info : Audio Coding 3
Mode extension : CM (complete main)
Format settings, Endianness : Big
Codec ID : A_AC3
Duration : 1h 45mn
Bit rate mode : Constant
Bit rate : 640 Kbps
Channel(s) : 6 channels
Channel positions : Front: L C R, Side: L R, LFE
Sampling rate : 48.0 KHz
Bit depth : 16 bits
Compression mode : Lossy
Stream size : 481 MiB (4%)
Title : AVO Zhivov
Language : Russian
Default : No
Forced : No
Audio #3
ID : 4
Format : AC-3
Format/Info : Audio Coding 3
Mode extension : CM (complete main)
Format settings, Endianness : Big
Codec ID : A_AC3
Duration : 1h 45mn
Bit rate mode : Constant
Bit rate : 640 Kbps
Channel(s) : 6 channels
Channel positions : Front: L C R, Side: L R, LFE
Sampling rate : 48.0 KHz
Bit depth : 16 bits
Compression mode : Lossy
Stream size : 481 MiB (4%)
Title : Original
Language : English
Default : No
Forced : No
Audio #4
ID : 5
Format : Vorbis
Format settings, Floor : 1
Codec ID : A_VORBIS
Duration : 1h 45mn
Bit rate mode : Variable
Bit rate : 80.0 Kbps
Channel(s) : 2 channels
Sampling rate : 48.0 KHz
Compression mode : Lossy
Stream size : 60.2 MiB (1%)
Title : Commentary
Writing library : libVorbis 1.2 (UTC 2007-06-22)
Language : English
Default : No
Forced : No
Writing application : Made with BeSweet v1.5b31
Encoded_Application/Url : http://DSPguru.doom9.org
Text #1
ID : 6
Format : UTF-8
Codec ID : S_TEXT/UTF8
Codec ID/Info : UTF-8 Plain Text
Title : Forced
Language : Russian
Default : Yes
Forced : No
Text #2
ID : 7
Format : UTF-8
Codec ID : S_TEXT/UTF8
Codec ID/Info : UTF-8 Plain Text
Language : Russian
Default : No
Forced : No
Text #3
ID : 8
Format : UTF-8
Codec ID : S_TEXT/UTF8
Codec ID/Info : UTF-8 Plain Text
Language : English
Default : No
Forced : No
Text #4
ID : 9
Format : UTF-8
Codec ID : S_TEXT/UTF8
Codec ID/Info : UTF-8 Plain Text
Title : SDH
Language : English
Default : No
Forced : No
Menu
00:00:00.000 : en:1. Start
00:02:42.996 : en:2. Shock the Nerd
00:06:38.940 : en:3. "Get Her!"
00:13:13.543 : en:4. Terminated
00:15:46.445 : en:5. Fixer-Upper
00:16:45.338 : en:6. Spook Central
00:18:36.157 : en:7. Fried Eggs & Zuul
00:20:51.125 : en:8. "Bug-Eyes Thing"
00:21:50.059 : en:9. The 1st Customer
00:23:59.938 : en:10. Checking Out Dana
00:28:35.756 : en:11. "We Got One!"
00:32:31.700 : en:12. "He Slimed Me."
00:34:51.965 : en:13. "Nice Shootin', Tex."
00:39:06.678 : en:14. Welcome Aboard
00:46:07.848 : en:15. E.P.A. Man
00:48:46.715 : en:16. Dogs Drag Dana
00:52:15.883 : en:17. "Who Brought the Dog?"
00:53:53.564 : en:18. Terror on the Tavern
00:55:04.051 : en:19. Peter's Date with Zuul
00:59:13.133 : en:20. Keymaster
01:04:33.161 : en:21. Out of Biz
01:10:41.946 : en:22. Holding Cell
01:13:35.286 : en:23. Keeper Meets Master
01:14:41.560 : en:24. Biblical
01:18:58.525 : en:25. Working the Crowd
01:25:17.029 : en:26. Gozer
01:30:44.731 : en:27. Stay Puft Man
01:33:49.207 : en:28. Crossing Streams

Скриншоты

source vs CRiSC vs DON (old)




Скачать

Скачать торрент!

Как скачивать? · Что такое торрент? · Рейтинг и ограничения

Сайт не распространяет и не хранит электронные версии произведений, а лишь предоставляет доступ к создаваемому пользователями каталогу ссылок на торрент-файлы, которые содержат только списки хеш-сумм

[Профиль] [ЛС]
Показать сообщения:    
Ответить на тему

Текущее время: Сегодня 09:52

Часовой пояс: GMT + 4



Вы не можете начинать темы
Вы не можете отвечать на сообщения
Вы не можете редактировать свои сообщения
Вы не можете удалять свои сообщения
Вы не можете голосовать в опросах
Вы не можете прикреплять файлы к сообщениям
Вы не можете скачивать файлы