Звонок / Ringu: Kanzen-ban (Чисуи Такигава / Chisui Takigawa) [1995, Япония, детектив, ужасы, VHSRip] VO (den904) + Sub Rus

Ответить на тему
 
Автор Сообщение

user ®

Стаж: 11 лет

Сообщений: 15151

Пост Пост: #1 от 12-Ноя-2013 10:50

[Цитировать]

Звонок: Полная Версия / Ringu: Kanzen-ban
Страна: Япония
Жанр: детектив, ужасы
Год выпуска: 1995
Продолжительность: 01:37:20
Перевод: Одноголосый закадровый den904
Cубтитры: русские
Режиссер: Чисуи Такигава / Chisui Takigawa
В ролях: Катсунори Такахаси, Аянэ Миура, Мэй Татихара, Мэйя Хамада, Томорово Тагути, Ёсио Харада
Описание: В одно и то же время умирают четыре человека. Журналист Асакава, дядя одной из погибших, занимается расследованием этого дела. Асакава узнаёт, что все они умерли от сердечного приступа, и делает вывод, что причиной стал некий вирус, которым они заразились одновременно и в одном месте. Побывав на похоронах племянницы, Асакава выясняет, что за неделю до смерти они вместе ездили в туркомплекс Пасифик Ленд, и решает сам туда съездить. Приехав туда и остановившись в том же номере, Асакава находит их запись в дневнике о загадочной кассете, которую они посмотрели. Он берёт эту кассету у управляющего и смотрит. Кассета произвела на него ужасающее впечатление, и он начинает действительно верить, что умрёт через неделю.
Сэмпл: http://multi-up.com/922479
Качество видео: VHSRip
Формат видео: AVI
Видео: XVID, 704x528 (4:3), 23,976 fps, 1900 kbps
Аудио: MPEG Audio Layer 3, 48 kHz, 128 kbps, 2.0, Русский
Формат субтитров: softsub (SRT)
Доп. информация о субтитрах: contello

MediaInfo

Общее
Полное имя : C:\Users\Юля\Videos\Новая папка\програми\Новая папка\Ringu.Kanzen.ban.1995\Ringu.Kanzen.ban.1995.VHSRip (1).avi
Формат : AVI
Формат/Информация : Audio Video Interleave
Размер файла : 1,38 Гбайт
Продолжительность : 1 ч. 37 м.
Общий поток : 2037 Кбит/сек
Программа кодирования : VirtualDubMod 1.5.10.2 (build 2540/release)
Библиотека кодирования : VirtualDubMod build 2540/release
Видео
Идентификатор : 0
Формат : MPEG-4 Visual
Профиль формата : Simple@L1
Параметр BVOP формата : Нет
Параметр QPel формата : Нет
Параметр GMC формата : Без точки перехода
Параметр матрицы формата : Default (H.263)
Идентификатор кодека : XVID
Идентификатор кодека/Подсказка : XviD
Продолжительность : 1 ч. 37 м.
Битрейт : 1900 Кбит/сек
Ширина : 704 пикселя
Высота : 528 пикселей
Соотношение сторон : 4:3
Частота кадров : 23,976 кадра/сек
Цветовое пространство : YUV
Субдискретизация насыщенности : 4:2:0
Битовая глубина : 8 бит
Тип развёртки : Прогрессивная
Метод сжатия : С потерями
Бит/(Пиксели*Кадры) : 0.213
Размер потока : 1,29 Гбайт (93%)
Библиотека кодирования : Lavc53.33.0
Аудио
Идентификатор : 1
Формат : MPEG Audio
Версия формата : Version 1
Профиль формата : Layer 3
Режим : Joint stereo
Расширение режима : MS Stereo
Идентификатор кодека : 55
Идентификатор кодека/Подсказка : MP3
Продолжительность : 1 ч. 37 м.
Вид битрейта : Постоянный
Битрейт : 128 Кбит/сек
Каналы : 2 канала
Частота : 48,0 КГц
Метод сжатия : С потерями
Размер потока : 89,1 Мбайт (6%)
Выравнивание : Соединение по промежуткам
Продолжительность промежутка : 42 мс. (1,00 видеокадр)
Время предзагрузки промежутка : 504 мс.

Скриншот c названием фильма

Скриншоты




Скачать

Скачать торрент! Звонок / Ringu: Kanzen-ban (Чисуи Такигава / Chisui Takigawa) [1995, Япония, детектив, ужасы, VHSRip] VO (den904) + Sub Rus

Как скачивать? · Что такое торрент? · Рейтинг и ограничения

Сайт не распространяет и не хранит электронные версии произведений, а лишь предоставляет доступ к создаваемому пользователями каталогу ссылок на торрент-файлы, которые содержат только списки хеш-сумм

[Профиль] [ЛС]
Показать сообщения:    
Ответить на тему

Текущее время: Сегодня 13:06

Часовой пояс: GMT + 4



Вы не можете начинать темы
Вы не можете отвечать на сообщения
Вы не можете редактировать свои сообщения
Вы не можете удалять свои сообщения
Вы не можете голосовать в опросах
Вы не можете прикреплять файлы к сообщениям
Вы не можете скачивать файлы