Темная ночь пугала / Dark Night of the Scarecrow (Фрэнк Де Фелитта / Frank De Felitta) [1981, США, Ужасы, BDRip 1080p] VO + Sub Eng + Original Eng

Ответить на тему
 
Автор Сообщение

user ®

Стаж: 7 лет 7 месяцев

Сообщений: 20008

Пост Пост: #1 от 11-Ноя-2013 23:15

[Цитировать]

Темная ночь пугала / Dark Night of the Scarecrow
Страна: США
Студия: Wizan Productions
Жанр: Ужасы
Год выпуска: 1981
Продолжительность: 01:36:54
Перевод: Одноголосый закадровый (Максим Логинофф)
Cубтитры: английские
Оригинальная аудиодорожка: английский
Режиссер: Фрэнк Де Фелитта / Frank De Felitta
В ролях: Чарльз Дёрнинг, Роберт Ф. Лайонс, Клод Эрл Джонс, Лейн Смит, Тоня Кроу, Ларри Дрэйк, Жослин Брандо, Том Тейлор, Ричард МакКензи, Айви Джонс
Описание: Умственно отсталого парня Буббу Риттера несправедливо обвиняют в смерти маленькой девочки. Толпа очумелых нападает на него и забивает до смерти. Но вскоре один из нападавших таинственным образом погибает. Испуганные подростки пытаются вычислить, кто может быть убийцей и сколько их останется в живых…

Сэмпл
Релиз группы: NovaLan
Тип релиза: BDRip 1080p
Контейнер: MKV
Видео: 1440x1080, 23.976 fps, x264, 11.8 kbps
Аудио: (RUS): DTS, 1510 kb/s, 5.1, 48 kHz, 16 bits
Аудио 2: (ENG): DTS, 1510 kb/s, 5.1, 48 kHz, 16 bits
Формат субтитров: английские (UTF-8)

MediaInfo

Полное имя : E:\Dark.Night.of.the.Scarecrow.1981.x264.BDRip.1080p.NovaLan.mkv
Формат : Matroska
Версия формата : Version 4 / Version 2
Размер файла : 10,0 Гбайт
Продолжительность : 1 ч. 36 м.
Общий поток : 14,8 Мбит/сек
Название фильма : Night of the Scarecrow 1981 - NovaLan
Дата кодирования : UTC 2013-11-11 04:13:57
Программа кодирования : mkvmerge v6.5.0 ('Isn't she lovely') built on Oct 20 2013 12:50:05
Библиотека кодирования : libebml v1.3.0 + libmatroska v1.4.1
Видео
Идентификатор : 1
Формат : AVC
Формат/Информация : Advanced Video Codec
Профиль формата : High@L4.1
Параметр CABAC формата : Да
Параметр ReFrames формата : 4 кадра
Идентификатор кодека : V_MPEG4/ISO/AVC
Продолжительность : 1 ч. 36 м.
Битрейт : 11,8 Мбит/сек
Ширина : 1440 пикселей
Высота : 1080 пикселей
Соотношение сторон : 4:3
Частота кадров : 23,976 кадра/сек
Цветовое пространство : YUV
Субдискретизация насыщенности : 4:2:0
Битовая глубина : 8 бит
Тип развёртки : Прогрессивная
Бит/(Пиксели*Кадры) : 0.316
Размер потока : 7,79 Гбайт (78%)
Заголовок : Sergei7721
Библиотека кодирования : x264 core 133 r2334 a3ac64b
Настройки программы : cabac=1 / ref=4 / deblock=1:-1:-1 / analyse=0x3:0x113 / me=umh / subme=10 / psy=1 / psy_rd=1.00:0.20 / mixed_ref=1 / me_range=32 / chroma_me=1 / trellis=2 / 8x8dct=1 / cqm=0 / deadzone=21,11 / fast_pskip=0 / chroma_qp_offset=-3 / threads=12 / lookahead_threads=1 / sliced_threads=0 / nr=0 / decimate=0 / interlaced=0 / bluray_compat=0 / constrained_intra=0 / bframes=6 / b_pyramid=2 / b_adapt=2 / b_bias=0 / direct=3 / weightb=1 / open_gop=0 / weightp=2 / keyint=240 / keyint_min=23 / scenecut=40 / intra_refresh=0 / rc_lookahead=40 / rc=2pass / mbtree=0 / bitrate=11798 / ratetol=1.0 / qcomp=0.60 / qpmin=0 / qpmax=69 / qpstep=4 / cplxblur=20.0 / qblur=0.5 / vbv_maxrate=50000 / vbv_bufsize=62500 / nal_hrd=none / ip_ratio=1.40 / pb_ratio=1.30 / aq=1:1.00
Язык : English
Default : Да
Forced : Нет
Аудио #1
Идентификатор : 2
Формат : DTS
Формат/Информация : Digital Theater Systems
Идентификатор кодека : A_DTS
Продолжительность : 1 ч. 36 м.
Вид битрейта : Постоянный
Битрейт : 1510 Кбит/сек
Каналы : 6 каналов
Расположение каналов : Front: L C R, Side: L R, LFE
Частота : 48,0 КГц
Битовая глубина : 16 бит
Метод сжатия : С потерями
Размер потока : 1,02 Гбайт (10%)
Язык : Russian
Default : Да
Forced : Нет
Аудио #2
Идентификатор : 3
Формат : DTS
Формат/Информация : Digital Theater Systems
Идентификатор кодека : A_DTS
Продолжительность : 1 ч. 36 м.
Вид битрейта : Постоянный
Битрейт : 1510 Кбит/сек
Каналы : 6 каналов
Расположение каналов : Front: L C R, Side: L R, LFE
Частота : 48,0 КГц
Битовая глубина : 16 бит
Метод сжатия : С потерями
Размер потока : 1,02 Гбайт (10%)
Язык : English
Default : Нет
Forced : Нет
Текст
Идентификатор : 4
Формат : UTF-8
Идентификатор кодека : S_TEXT/UTF8
Идентификатор кодека/Информация : UTF-8 Plain Text
Язык : English
Default : Нет
Forced : Нет
Меню
00:00:00.000 : en:00:00:00.000
00:04:15.130 : en:00:04:15.130
00:10:08.525 : en:00:10:08.525
00:14:18.691 : en:00:14:18.691
00:22:12.164 : en:00:22:12.164
00:26:51.902 : en:00:26:51.902
00:31:04.946 : en:00:31:04.946
00:35:48.063 : en:00:35:48.063
00:40:10.450 : en:00:40:10.450
00:45:39.070 : en:00:45:39.070
00:50:08.130 : en:00:50:08.130
00:56:49.239 : en:00:56:49.239
01:01:47.704 : en:01:01:47.704
01:05:07.904 : en:01:05:07.904
01:11:46.636 : en:01:11:46.636
01:18:12.104 : en:01:18:12.104
01:27:37.544 : en:01:27:37.544

Скриншоты

Скачать

Скачать торрент!

Как скачивать? · Что такое торрент? · Рейтинг и ограничения

Сайт не распространяет и не хранит электронные версии произведений, а лишь предоставляет доступ к создаваемому пользователями каталогу ссылок на торрент-файлы, которые содержат только списки хеш-сумм

[Профиль] [ЛС]
Показать сообщения:    
Ответить на тему

Текущее время: Сегодня 20:21

Часовой пояс: GMT + 4



Вы не можете начинать темы
Вы не можете отвечать на сообщения
Вы не можете редактировать свои сообщения
Вы не можете удалять свои сообщения
Вы не можете голосовать в опросах
Вы не можете прикреплять файлы к сообщениям
Вы не можете скачивать файлы