Великий Гэтсби / The Great Gatsby (Баз Лурман / Baz Luhrmann) [2013, США, мелодрама, BDRip 720p] Dub + AVO (Юрий Сербин) + Sub Rus, Eng + Original Eng

Ответить на тему
 
Автор Сообщение

user ®

Стаж: 7 лет 7 месяцев

Сообщений: 20008

Пост Пост: #1 от 11-Ноя-2013 23:15

[Цитировать]

-Великий Гэтсби / The Great Gatsby-Страна: США
Жанр: мелодрама
Год выпуска: 2013
Продолжительность: 02:22:05-Перевод: Профессиональный (дублированный)
Перевод 2: Авторский (одноголосый закадровый) Юрий Сербин
Cубтитры: русские, английские
Оригинальная аудиодорожка: английский-Режиссер: Баз Лурман / Baz Luhrmann
В ролях: Леонардо ДиКаприо, Тоби Магуайр, Кэри Маллиган, Джоэл Эдгертон, Айла Фишер, Джейсон Кларк, Амитабх Баччан, Стив Бисли, Ричард Картер, Эделейд Клеменс-Описание: Весной 1922 года, в эпоху разлагающейся морали, блистательного джаза и «королей контрабандного алкоголя», Ник Каррауэй приезжает из Среднего Запада в Нью-Йорк. Преследуя собственную американскую мечту, он селится по соседству с таинственным, известным своими вечеринками миллионером Джеем Гэтсби, а на противоположном берегу бухты проживают его кузина Дэйзи и её муж, повеса и аристократ, Том Бьюкенен. Так Ник оказывается вовлечённым в захватывающий мир богатых - их иллюзий, любви и обманов. Он становится свидетелем происходящего в этом мире и пишет историю невозможной любви, вечных мечтаний и человеческой трагедии, которые являются отражением современных времен и нравов.-Сэмпл: http://yadi.sk/d/d8jmFT-ACX4f3-Тип релиза: BDRip 720p
Контейнер: MKV
Видео: MPEG-4 AVC Video 6400 Kbps 1280x534 / 23,976 fps / 16:9 / High Profile 4.1
Аудио: Dolby Digital Audio Russian 5.1 / 48 kHz / 448 kbps | Дубляж
Аудио 2: DTS Audio Russian 5.1 / 48 kHz / 1509 kbps / 16-bit | Юрий Сербин
Аудио 3: Dolby Digital Audio Ukrainian 5.1 / 48 kHz / 448 kbps | Дубляж
Аудио 4: DTS Audio English 5.1 / 48 kHz / 1509 kbps / 16-bit
Формат субтитров: softsub (SRT)

Видеоряд от DON

The.Great.Gatsby.2013.720p.BluRay.DTS.x264-DON
RUNTiME.......: 02h:22m:06sSiZE..........: 07.86 GBVIDEO CODEC...: x264, 2pass, L4.1FRAMERATE.....: 23.976 fpsBITRATE.......: ~6,400 KbpsRESOLUTION....: 1280x534AUDiO1........: English DTS 5.1 @ 1509 KbpsSUBTITLES.....: ENSOURCE........: 1080p 3D Blu-ray AVC DTS-HD MA 5.1-HDWinG (thx Malwin!)
ENCODER.......: V90RELEASE DATE..: 25/08/2013
[x264 info]:
x264 [info]:x264 [info]: frame I:2368 Avg QP:14.30 size:132927x264 [info]: frame P:53708 Avg QP:15.69 size: 60067x264 [info]: frame B:148337 Avg QP:17.51 size: 22097x264 [info]: consecutive B-frames: 4.3% 5.4% 9.6% 44.6% 9.7% 20.4% 2.6% 3.0% 0.6%encoded 204413 frames, 2.17 fps, 6398.23 kb/s

MI

General
Complete name                    : X:\  -= Фильмы =-\Великий Гэтсби (2013. The Great Gatsby) 720p.mkv
Format                           : Matroska
File size                        : 10.2 GiB
Duration                         : 2h 22mn
Overall bit rate                 : 10.3 Mbps
Movie name                       : The Great Gatsby (2013) - Release from HDCLUB
Encoded date                     : UTC 2013-11-11 16:53:42
Writing application              : mkvmerge v4.9.1 ('Ich will') сборка от Jul 11 2011 23:53:15
Writing library                  : libebml v1.2.1 + libmatroska v1.1.1
Video
ID                               : 1
Format                           : AVC
Format/Info                      : Advanced Video Codec
Format profile                   : High@L4.1
Format settings, CABAC           : Yes
Format settings, ReFrames        : 12 frames
Muxing mode                      : Container profile=Unknown@4.1
Codec ID                         : V_MPEG4/ISO/AVC
Duration                         : 2h 22mn
Bit rate                         : 6 400 Kbps
Width                            : 1 280 pixels
Height                           : 534 pixels
Display aspect ratio             : 2.35:1
Frame rate                       : 23.976 fps
Color space                      : YUV
Chroma subsampling               : 4:2:0
Bit depth                        : 8 bits
Scan type                        : Progressive
Bits/(Pixel*Frame)               : 0.391
Stream size                      : 6.15 GiB (60%)
Title                            : The.Great.Gatsby.2013.720p.BluRay.DTS.x264-DON
Writing library                  : x264 core 135 r2345 f0c1c53
Encoding settings                : cabac=1 / ref=12 / deblock=1:-3:-3 / analyse=0x3:0x133 / me=tesa / subme=9 / psy=1 / psy_rd=1.05:0.10 / mixed_ref=1 / me_range=32 / chroma_me=1 / trellis=2 / 8x8dct=1 / cqm=0 / deadzone=21,11 / fast_pskip=0 / chroma_qp_offset=-3 / threads=12 / lookahead_threads=2 / sliced_threads=0 / nr=0 / decimate=0 / interlaced=0 / bluray_compat=0 / constrained_intra=0 / bframes=8 / b_pyramid=2 / b_adapt=2 / b_bias=0 / direct=3 / weightb=1 / open_gop=0 / weightp=2 / keyint=250 / keyint_min=23 / scenecut=40 / intra_refresh=0 / rc_lookahead=60 / rc=2pass / mbtree=0 / bitrate=6400 / ratetol=1.0 / qcomp=0.60 / qpmin=0 / qpmax=50 / qpstep=4 / cplxblur=20.0 / qblur=0.5 / vbv_maxrate=50000 / vbv_bufsize=50000 / nal_hrd=none / ip_ratio=1.20 / pb_ratio=1.30 / aq=1:0.80
Language                         : English
Audio #1
ID                               : 2
Format                           : AC-3
Format/Info                      : Audio Coding 3
Mode extension                   : CM (complete main)
Codec ID                         : A_AC3
Duration                         : 2h 22mn
Bit rate mode                    : Constant
Bit rate                         : 448 Kbps
Channel(s)                       : 6 channels
Channel positions                : Front: L C R, Side: L R, LFE
Sampling rate                    : 48.0 KHz
Bit depth                        : 16 bits
Stream size                      : 455 MiB (4%)
Title                            : DUB [Blu-ray CEE]
Language                         : Russian
Audio #2
ID                               : 3
Format                           : DTS
Format/Info                      : Digital Theater Systems
Codec ID                         : A_DTS
Duration                         : 2h 22mn
Bit rate mode                    : Constant
Bit rate                         : 1 510 Kbps
Channel(s)                       : 6 channels
Channel positions                : Front: L C R, Side: L R, LFE
Sampling rate                    : 48.0 KHz
Bit depth                        : 16 bits
Stream size                      : 1.50 GiB (15%)
Title                            : Юрий Сербин
Language                         : Russian
Audio #3
ID                               : 4
Format                           : AC-3
Format/Info                      : Audio Coding 3
Mode extension                   : CM (complete main)
Codec ID                         : A_AC3
Duration                         : 2h 22mn
Bit rate mode                    : Constant
Bit rate                         : 448 Kbps
Channel(s)                       : 6 channels
Channel positions                : Front: L C R, Side: L R, LFE
Sampling rate                    : 48.0 KHz
Bit depth                        : 16 bits
Stream size                      : 455 MiB (4%)
Title                            : DUB [Blu-ray CEE]
Language                         : Ukrainian
Audio #4
ID                               : 5
Format                           : DTS
Format/Info                      : Digital Theater Systems
Codec ID                         : A_DTS
Duration                         : 2h 22mn
Bit rate mode                    : Constant
Bit rate                         : 1 510 Kbps
Channel(s)                       : 6 channels
Channel positions                : Front: L C R, Side: L R, LFE
Sampling rate                    : 48.0 KHz
Bit depth                        : 16 bits
Stream size                      : 1.50 GiB (15%)
Language                         : English
Text #1
ID                               : 6
Format                           : UTF-8
Codec ID                         : S_TEXT/UTF8
Codec ID/Info                    : UTF-8 Plain Text
Title                            : Forced
Language                         : Russian
Text #2
ID                               : 7
Format                           : UTF-8
Codec ID                         : S_TEXT/UTF8
Codec ID/Info                    : UTF-8 Plain Text
Language                         : Russian
Text #3
ID                               : 8
Format                           : UTF-8
Codec ID                         : S_TEXT/UTF8
Codec ID/Info                    : UTF-8 Plain Text
Title                            : Forced
Language                         : Ukrainian
Text #4
ID                               : 9
Format                           : UTF-8
Codec ID                         : S_TEXT/UTF8
Codec ID/Info                    : UTF-8 Plain Text
Language                         : Ukrainian
Text #5
ID                               : 10
Format                           : UTF-8
Codec ID                         : S_TEXT/UTF8
Codec ID/Info                    : UTF-8 Plain Text
Language                         : English
Text #6
ID                               : 11
Format                           : UTF-8
Codec ID                         : S_TEXT/UTF8
Codec ID/Info                    : UTF-8 Plain Text
Title                            : SDH
Language                         : English
Text #7
ID                               : 12
Format                           : UTF-8
Codec ID                         : S_TEXT/UTF8
Codec ID/Info                    : UTF-8 Plain Text
Title                            : SDH-COLORED
Language                         : English
Menu
00:00:00.000                     : en:00:00:00.000
00:11:04.080                     : en:00:11:04.080
00:22:55.833                     : en:00:22:55.833
00:34:26.898                     : en:00:34:26.898
00:44:48.728                     : en:00:44:48.728
00:55:36.333                     : en:00:55:36.333
01:06:20.643                     : en:01:06:20.643
01:18:27.786                     : en:01:18:27.786
01:31:13.927                     : en:01:31:13.927
01:44:11.954                     : en:01:44:11.954
01:56:35.155                     : en:01:56:35.155
02:05:46.122                     : en:02:05:46.122
02:09:40.982                     : en:02:09:40.982

Скриншоты


  • Перевод Юрия Сербина выполнен в рамках сервиса от "Озвучивание" совместно с E180 и dvd100. Спонсоры HDCLUB: tambov68, oak, serdg71, RAUL, dsk71, v1111o, Luka69, Kain_Rasiel, u6868, Snaip, Didier. Работа над дорогой: Nadoelo. Всем СПАСИБО!
Скачать

Скачать торрент!

Как скачивать? · Что такое торрент? · Рейтинг и ограничения

Сайт не распространяет и не хранит электронные версии произведений, а лишь предоставляет доступ к создаваемому пользователями каталогу ссылок на торрент-файлы, которые содержат только списки хеш-сумм

[Профиль] [ЛС]
Показать сообщения:    
Ответить на тему

Текущее время: Сегодня 01:44

Часовой пояс: GMT + 4



Вы не можете начинать темы
Вы не можете отвечать на сообщения
Вы не можете редактировать свои сообщения
Вы не можете удалять свои сообщения
Вы не можете голосовать в опросах
Вы не можете прикреплять файлы к сообщениям
Вы не можете скачивать файлы