Охотник за головами / Headhunter (Румле Хаммерих / Rumle Hammerich) [2009, Дания, триллер, BDRip 720p] VO (Агент Смит) + Original (Dan) + Subs (Rus, Eng)

Ответить на тему
 
Автор Сообщение

user ®

Стаж: 7 лет 7 месяцев

Сообщений: 20008

Пост Пост: #1 от 11-Ноя-2013 20:05

[Цитировать]

Охотник за головами / Headhunter Страна: Дания
Студия: Det Danske Filminstitut, Nordisk Film Valby, ...
Жанр: триллер
Год выпуска: 2009
Продолжительность: 01:47:13
Перевод: Одноголосый закадровый Агент Смит
Cубтитры: английские, русские (SonnyB)
Оригинальная аудиодорожка: датский
Режиссер: Румле Хаммерих / Rumle Hammerich
В ролях: Ларс Миккельсен, Шарлотта Манк, Букхард Форстройтер, Шарлотта Фич, Троэльс Любю, Хенрик Ипсен, Пребен Харрис, Хеннинг Моритцен
Описание:
35-летний Мартин Винге, бывший бизнес-журналист, а теперь успешный рекрутёр, подбирающий топ-персонал для крупных корпораций, человек со сложной судьбой. Однажды Мартину поступает заказ от г-на Зигера — пожилого владельца судоходного и нефтяного скандинавского концерна. Мартин должен подобрать преемника корпорации, способного руководить концерном в новое время и альтернативного собственному сыну и наследнику г-на Зигера — Даниэлю Зигеру.
Взявшись за подбор кандидатов, Мартин вскоре обнаруживает, что у руководства концерна есть и другие планы относительно будущего корпорации. Становясь пешкой в жестокой и алчной игре за власть, Мартин и близкие ему люди становятся заложниками бескомпромиссной схватки.
- ||-Тип релиза: BDRip 720p (рип от CRiSC)

Контейнер: MKV
Видео: AVC (x264), 1280x534 (2,40:1) at 24,000 fps, 4967 Кbps, 0.303 bpp
Аудио 1: AC3; 448 Kbps; CBR; 6 ch; 48 khz | VO - Агент Смит |
Аудио 2: AC3; 640 Kbps; CBR; 6 ch; 48 khz | Датский |
Формат субтитров: softsub (SRT)

Скриншоты || x264 Info || MediaInfo || Notes

Аудио дорожка №1 и русские субтитры взяты с этой [url=http://***/forum/viewtopic.php?t=4329168]раздачи[/url], thx: лорди74

MediaInfo

Общее
Уникальный идентификатор                 : 175523941778343033740625258202456963681 (0x840CAE79966BC1A3867C6DBE5108BA61)
Полное имя                               : Охотник за головами.2009.L1.720p.BluRay.x264-CRiSC.mkv
Формат                                   : Matroska
Версия формата                           : Version 4 / Version 2
Размер файла                             : 4,63 Гбайт
Продолжительность                        : 1 ч. 47 м.
Общий поток                              : 6178 Кбит/сек
Название фильма                          : profile.php?mode=viewprofile&u=22488948
Дата кодирования                         : UTC 2013-10-17 07:55:04
Программа кодирования                    : mkvmerge v6.4.1 ('Omega Point') built on Sep 16 2013 22:05:10
Библиотека кодирования                   : libebml v1.3.0 + libmatroska v1.4.1
Видео
Идентификатор                            : 1
Формат                                   : AVC
Формат/Информация                        : Advanced Video Codec
Профиль формата                          : High@L4.1
Параметр CABAC формата                   : Да
Параметр ReFrames формата                : 12 кадров
Идентификатор кодека                     : V_MPEG4/ISO/AVC
Продолжительность                        : 1 ч. 47 м.
Битрейт                                  : 4967 Кбит/сек
Ширина                                   : 1280 пикселей
Высота                                   : 534 пикселя
Соотношение сторон                       : 2,40:1
Режим частоты кадров                     : Постоянный
Частота кадров                           : 24,000 кадра/сек
Цветовое пространство                    : YUV
Субдискретизация насыщенности            : 4:2:0
Битовая глубина                          : 8 бит
Тип развёртки                            : Прогрессивная
Бит/(Пиксели*Кадры)                      : 0.303
Размер потока                            : 3,72 Гбайт (80%)
Библиотека кодирования                   : x264 core 129 r2245kMod bc13772
Настройки программы                      : cabac=1 / ref=12 / deblock=1:-3:-3 / analyse=0x3:0x133 / me=umh / subme=11 / psy=1 / fade_compensate=0.00 / psy_rd=1.10:0.00 / mixed_ref=1 / me_range=64 / chroma_me=1 / trellis=2 / 8x8dct=1 / cqm=0 / deadzone=21,11 / fast_pskip=0 / chroma_qp_offset=-2 / threads=12 / lookahead_threads=2 / sliced_threads=0 / nr=0 / decimate=0 / interlaced=0 / bluray_compat=0 / constrained_intra=0 / bframes=7 / b_pyramid=2 / b_adapt=2 / b_bias=0 / direct=3 / weightb=1 / open_gop=0 / weightp=2 / keyint=250 / keyint_min=24 / scenecut=40 / intra_refresh=0 / rc_lookahead=40 / rc=crf / mbtree=0 / crf=16.7000 / qcomp=0.75 / qpmin=0 / qpmax=69 / qpstep=4 / vbv_maxrate=50000 / vbv_bufsize=62500 / crf_max=0.0 / nal_hrd=none / ip_ratio=1.35 / pb_ratio=1.25 / aq=1:0.80
Язык                                     : Danish
Default                                  : Да
Forced                                   : Нет
Основные цвета                           : BT.709
Характеристики трансфера                 : BT.709
Коэффициенты матрицы                     : BT.709
Аудио #1
Идентификатор                            : 2
Формат                                   : AC-3
Формат/Информация                        : Audio Coding 3
Расширение режима                        : CM (complete main)
Параметр Endianness формата              : Big
Идентификатор кодека                     : A_AC3
Продолжительность                        : 1 ч. 47 м.
Вид битрейта                             : Постоянный
Битрейт                                  : 448 Кбит/сек
Каналы                                   : 6 каналов
Расположение каналов                     : Front: L C R, Side: L R, LFE
Частота                                  : 48,0 КГц
Битовая глубина                          : 16 бит
Метод сжатия                             : С потерями
Размер потока                            : 344 Мбайт (7%)
Заголовок                                : VO [Агент Смит]
Язык                                     : Russian
Default                                  : Да
Forced                                   : Нет
Аудио #2
Идентификатор                            : 3
Формат                                   : AC-3
Формат/Информация                        : Audio Coding 3
Расширение режима                        : CM (complete main)
Параметр Endianness формата              : Big
Идентификатор кодека                     : A_AC3
Продолжительность                        : 1 ч. 47 м.
Вид битрейта                             : Постоянный
Битрейт                                  : 640 Кбит/сек
Каналы                                   : 6 каналов
Расположение каналов                     : Front: L C R, Side: L R, LFE
Частота                                  : 48,0 КГц
Битовая глубина                          : 16 бит
Метод сжатия                             : С потерями
Размер потока                            : 491 Мбайт (10%)
Язык                                     : Danish
Default                                  : Нет
Forced                                   : Нет
Текст #1
Идентификатор                            : 4
Формат                                   : UTF-8
Идентификатор кодека                     : S_TEXT/UTF8
Идентификатор кодека/Информация          : UTF-8 Plain Text
Язык                                     : English
Default                                  : Нет
Forced                                   : Нет
Текст #2
Идентификатор                            : 5
Формат                                   : UTF-8
Идентификатор кодека                     : S_TEXT/UTF8
Идентификатор кодека/Информация          : UTF-8 Plain Text
Заголовок                                : [SonnyB]
Язык                                     : Russian
Default                                  : Нет
Forced                                   : Нет
Меню
00:00:00.000                             : en:THE SICK CHILD
00:08:30.000                             : en:THE CONTRACT
00:16:39.000                             : en:NO ACCIDENT
00:22:25.000                             : en:DANIEL
00:35:31.000                             : en:KELLER CORPSES
00:44:11.000                             : en:SOLITUDE
00:49:56.000                             : en:DIRTY GAME
00:55:50.000                             : en:TARGET
01:10:00.000                             : en:TREASON
01:16:05.000                             : en:NO RETURN
01:23:02.000                             : en:HOME VISIT
01:30:32.000                             : en:THE LAST DEAL
01:37:40.000                             : en:ARMSTRONG 2001
01:44:24.000                             : en:CREDITS

x264 Info

x264 [info]: frame I:1140 Avg QP:13.63 size: 99208
x264 [info]: frame P:33459 Avg QP:15.21 size: 43265
x264 [info]: frame B:119792 Avg QP:17.05 size: 21125
x264 [info]: consecutive B-frames: 1.4% 2.6% 6.3% 25.8% 17.5% 42.3% 3.1% 0.9%
Скачать

Скачать торрент!

Как скачивать? · Что такое торрент? · Рейтинг и ограничения

Сайт не распространяет и не хранит электронные версии произведений, а лишь предоставляет доступ к создаваемому пользователями каталогу ссылок на торрент-файлы, которые содержат только списки хеш-сумм

[Профиль] [ЛС]
Показать сообщения:    
Ответить на тему

Текущее время: Сегодня 05:07

Часовой пояс: GMT + 4



Вы не можете начинать темы
Вы не можете отвечать на сообщения
Вы не можете редактировать свои сообщения
Вы не можете удалять свои сообщения
Вы не можете голосовать в опросах
Вы не можете прикреплять файлы к сообщениям
Вы не можете скачивать файлы