Капитан Филлипс / Captain Phillips (Пол Гринграсс / Paul Greengrass) [2013, США, Боевик, триллер, драма, TeleSynch] VO [VANO]

Ответить на тему
 
Автор Сообщение

user ®

Стаж: 7 лет 7 месяцев

Сообщений: 20008

Пост Пост: #1 от 11-Ноя-2013 11:25

[Цитировать]

Капитан Филлипс / Captain Phillips-«Выжить любой ценой»- Страна: США
Жанр: Боевик, триллер, драма
Год выпуска: 2013
Продолжительность: 02:07:12
Перевод: Одноголосый закадровый [VANO]
Cубтитры: нет
Оригинальная аудиодорожка: нет-Режиссер: Пол Гринграсс / Paul Greengrass
Продюсер: Дэна Брунетти, Майкл Де Лука, Скотт Рудин-В ролях: Том Хэнкс, Баркхад Абди, Баркхад Абдирахман, Файсал Ахмед, Махат М. Али, Майкл Чернус, Кэтрин Кинер, Дэвид Уоршофски, Кори Джонсон, Крис Малки-Описание: В начале апреля 2009 года, близ берегов Африки, несколько сомалийских пиратов атакуют и пытаются захватить массивный контейнеровоз MV Maersk Alabama. Команда корабля активно сопротивляется и в конце концов не даёт взять себя в плен. Захватчики вынуждены ретироваться и покинуть судно на небольшом катере, прихватив с собой немолодого капитана Ричарда Филлипса…-Дата мировой премьеры: 27 сентября 2013
Дата российской премьеры: 5 декабря 2013, «WDSSPR»
Дата выхода DVD релиза: 11 марта 2014, «Columbia/Sony»-Сэмпл: http://multi-up.com/921699-Качество видео: TeleSynch
Формат видео: AVI
Видео: 688x352 (1.95:1), 29.970 fps, XviD MPEG-4, 1414 kbps avg, 0.19 bit/pixel
Аудио: 44.100 kHz, MPEG Layer 3, 2 ch, 128.00 kbps avg-

MediaInfo

General
Complete name : C:\Новинки\Kapitan.Filips.2013.L1.TS.1400Mb.avi
Format : AVI
Format/Info : Audio Video Interleave
File size : 1.38 GiB
Duration : 2h 7mn
Overall bit rate : 1 554 Kbps
Writing application : VirtualDubMod 1.5.10.2 (build 2540/release)
Writing library : VirtualDubMod build 2540/release
Video
ID : 0
Format : MPEG-4 Visual
Format profile : Advanced Simple@L5
Format settings, BVOP : 2
Format settings, QPel : No
Format settings, GMC : No warppoints
Format settings, Matrix : Default (MPEG)
Muxing mode : Packed bitstream
Codec ID : XVID
Codec ID/Hint : XviD
Duration : 2h 7mn
Bit rate : 1 414 Kbps
Width : 688 pixels
Height : 352 pixels
Display aspect ratio : 16:10
Original display aspect ratio : 1.955
Frame rate : 29.970 fps
Color space : YUV
Chroma subsampling : 4:2:0
Bit depth : 8 bits
Scan type : Progressive
Compression mode : Lossy
Bits/(Pixel*Frame) : 0.195
Stream size : 1.26 GiB (91%)
Writing library : XviD 64
Audio
ID : 1
Format : MPEG Audio
Format version : Version 1
Format profile : Layer 3
Codec ID : 55
Codec ID/Hint : MP3
Duration : 2h 7mn
Bit rate mode : Constant
Bit rate : 128 Kbps
Channel count : 2 channels
Sampling rate : 44.1 KHz
Compression mode : Lossy
Stream size : 116 MiB (8%)
Alignment : Split accross interleaves
Interleave, duration : 33 ms (1.00 video frame)
Interleave, preload duration : 500 ms

Скриншот c названием фильма

Скриншоты

-
Скачать

Скачать торрент!

Как скачивать? · Что такое торрент? · Рейтинг и ограничения

Сайт не распространяет и не хранит электронные версии произведений, а лишь предоставляет доступ к создаваемому пользователями каталогу ссылок на торрент-файлы, которые содержат только списки хеш-сумм

[Профиль] [ЛС]
Показать сообщения:    
Ответить на тему

Текущее время: Сегодня 08:27

Часовой пояс: GMT + 4



Вы не можете начинать темы
Вы не можете отвечать на сообщения
Вы не можете редактировать свои сообщения
Вы не можете удалять свои сообщения
Вы не можете голосовать в опросах
Вы не можете прикреплять файлы к сообщениям
Вы не можете скачивать файлы