Не забывай меня / Forget Me Not (Альберт Мак / Albert Kai-kwong Mak) [2010, Гонконг, Драма, мистика, DVDRip] DVO

Ответить на тему
 
Автор Сообщение

user ®

Стаж: 11 лет

Сообщений: 15151

Пост Пост: #1 от 10-Ноя-2013 17:30

[Цитировать]

Не забывай меня / Forget Me Not
Страна: Гонконг
Жанр: Драма, мистика
Год выпуска: 2010
Продолжительность: 01:34:17
Перевод: Любительский (двухголосый закадровый)
Cубтитры: нет
Режиссер: Альберт Мак / Albert Kai-kwong Mak
В ролях: Грейс Йип, Реймонд Вонг, Уэйн Лай, Кари НГ, Елена Конг
Описание: Лам И - сирота, воспитанная в приюте. Она не помнит ни своего имени, ни своего прошлого, но помнит доброту воспитавших ее людей. У нее две мечты: семья и свой ребенок, которому она хочет дать имя сама, поому что имя - это жизнь, индивидуальность и благословение родителей; и вспомнить то, кто она такая, вспомнить свое настоящее имя. Но мечта Лам И рушится, когда она расстается со своим молодым человеком...ей приходится переехать в свой бывший дом, где ее мечты начинают сбываться и она узнает свое страшное и трагическое прошлое.
Доп. информация: Исходник DVD-5 R1 (СПАСИБО! wertrist)
Дорожка с переводом от релиз-группы: Колобок и проекта "Нет в Кино" (Спасибо!)
Перевод на русский: DeadSno
Озвучка: den904 и DeadSno
Сэмпл: http://multi-up.com/921802
Качество видео: DVDRip
Формат видео: AVI
Видео: XviD build 50, 688x384 (1.79:1), 23.976 fps, 968 kbps avg
Аудио: MPEG Layer 3, 48 kHz, 2/0 (L,R) ch, 128.00 kbps avg

MediaInfo

General
Complete name : F:\Forget Me Not (2010)\Ne.zabyvai.menya.2010.DVDRip-Dego.avi
Format : AVI
Format/Info : Audio Video Interleave
File size : 746 MiB
Duration : 1h 34mn
Overall bit rate : 1 106 Kbps
Writing application : VirtualDubMod 1.5.10.2 (build 2540/release)
Writing library : VirtualDubMod build 2540/release
Video
ID : 0
Format : MPEG-4 Visual
Format profile : AdvancedSimple@L5
Format settings, BVOP : Yes
Format settings, QPel : No
Format settings, GMC : No warppoints
Format settings, Matrix : Default (MPEG)
Codec ID : XVID
Codec ID/Hint : XviD
Duration : 1h 34mn
Bit rate : 969 Kbps
Width : 688 pixels
Height : 384 pixels
Display aspect ratio : 16/9
Frame rate : 23.976 fps
Resolution : 24 bits
Colorimetry : 4:2:0
Scan type : Progressive
Bits/(Pixel*Frame) : 0.153
Stream size : 653 MiB (88%)
Writing library : XviD 1.2.1 (UTC 2008-12-04)
Audio
ID : 1
Format : MPEG Audio
Format version : Version 1
Format profile : Layer 3
Codec ID : 55
Codec ID/Hint : MP3
Duration : 1h 34mn
Bit rate mode : Constant
Bit rate : 128 Kbps
Channel(s) : 2 channels
Sampling rate : 48.0 KHz
Resolution : 16 bits
Stream size : 86.3 MiB (12%)
Alignment : Aligned on interleaves
Interleave, duration : 42 ms (1.00 video frame)
Interleave, preload duration : 504 ms
Writing library : LAME3.98
Encoding settings : -m j -V 4 -q 3 -lowpass 17 -b 128

Скриншот c названием фильма

Скриншоты

Скачать

Скачать торрент! Не забывай меня / Forget Me Not (Альберт Мак / Albert Kai-kwong Mak) [2010, Гонконг, Драма, мистика, DVDRip] DVO

Как скачивать? · Что такое торрент? · Рейтинг и ограничения

Сайт не распространяет и не хранит электронные версии произведений, а лишь предоставляет доступ к создаваемому пользователями каталогу ссылок на торрент-файлы, которые содержат только списки хеш-сумм

[Профиль] [ЛС]
Показать сообщения:    
Ответить на тему

Текущее время: Сегодня 22:19

Часовой пояс: GMT + 4



Вы не можете начинать темы
Вы не можете отвечать на сообщения
Вы не можете редактировать свои сообщения
Вы не можете удалять свои сообщения
Вы не можете голосовать в опросах
Вы не можете прикреплять файлы к сообщениям
Вы не можете скачивать файлы