Истинно верующий / Верящий в правду / True Believer (Джозеф Рубин / Joseph Ruben) [1989, США, драма, криминал, WEB-DL 720p] DVO (НТВ+) + Sub Eng + Original Eng

Ответить на тему
 
Автор Сообщение

user ®

Стаж: 7 лет 7 месяцев

Сообщений: 20008

Пост Пост: #1 от 10-Ноя-2013 17:30

[Цитировать]

Раздача обновлена, оригинальная дорожка заменена на более качественную.-Истинно верующий / Верящий в правду / True Believer
Страна: США
Жанр: драма, криминал
Год выпуска: 1989
Продолжительность: 01:48:07
Перевод: Профессиональный (двухголосый закадровый) НТВ+
Cубтитры: английские
Оригинальная аудиодорожка: английский
Режиссер: Джозеф Рубин / Joseph Ruben
В ролях: Джеймс Вудс, Роберт Дауни мл., Маргарет Колин, Юдзи Окумото, Кертвуд Смит, Том Бауэр, Мигель Фернандес, Чарльз Хэллахан, Салли Диаз, Мисан Ким...
Описание: Молодой юрист, только закончивший учебу, устраивается ассистентом к преуспевающему адвокату, работой которого он восхищался многие годы. Выясняется, что этот «профессионал» растерял былой энтузиазм, и сейчас проводит время, вытаскивая торговцев наркотиками из тюрьмы. Однако появляется интересное дельце. К ним обращается мама паренька, осужденного на пожизненное заключение за убийство, которого он не совершал.
Доп. информация: Исходником звука послужила раздача от myshka-jinny.
Сэмпл: http://multi-up.com/921978
Тип релиза: WEB-DL 720p
Контейнер: MKV
Видео: 1280x720 (16:9), 23.976 fps, AVC, ~3975 Kbps
Аудио 1: Russian, 48.0 KHz, AC3, 2 ch, 128 Kbps - НТВ+
Аудио 2: English, 48.0 KHz, AC3, 2 ch, 192 Kbps
Формат субтитров: softsub (SRT)

MediaInfo

General
Unique ID : 218251988688757031221547688480309997899 (0xA431CDD5D0128229802014AC7027714B)
Complete name : D:\True Believer.mkv
Format : Matroska
Format version : Version 4 / Version 2
File size : 3.31 GiB
Duration : 1h 48mn
Overall bit rate : 4 382 Kbps
Encoded date : UTC 2013-11-10 10:19:04
Writing application : mkvmerge v6.5.0 ('Isn't she lovely') built on Oct 20 2013 12:50:05
Writing library : libebml v1.3.0 + libmatroska v1.4.1
Video
ID : 1
Format : AVC
Format/Info : Advanced Video Codec
Format profile : High@L3.1
Format settings, CABAC : No
Format settings, ReFrames : 2 frames
Codec ID : V_MPEG4/ISO/AVC
Duration : 1h 48mn
Bit rate : 3 975 Kbps
Width : 1 280 pixels
Height : 720 pixels
Display aspect ratio : 16:9
Frame rate mode : Constant
Frame rate : 23.976 fps
Color space : YUV
Chroma subsampling : 4:2:0
Bit depth : 8 bits
Scan type : Progressive
Bits/(Pixel*Frame) : 0.180
Stream size : 3.00 GiB (91%)
Language : English
Default : Yes
Forced : No
Color primaries : BT.709
Transfer characteristics : BT.709
Matrix coefficients : BT.709
Audio #1
ID : 2
Format : AC-3
Format/Info : Audio Coding 3
Mode extension : CM (complete main)
Format settings, Endianness : Big
Codec ID : A_AC3
Duration : 1h 48mn
Bit rate mode : Constant
Bit rate : 128 Kbps
Channel count : 2 channels
Channel positions : Front: L R
Sampling rate : 48.0 KHz
Bit depth : 16 bits
Compression mode : Lossy
Stream size : 99.0 MiB (3%)
Title : НТВ+
Language : Russian
Default : No
Forced : No
Audio #2
ID : 3
Format : AC-3
Format/Info : Audio Coding 3
Format profile : Dolby Digital
Mode extension : CM (complete main)
Format settings, Endianness : Big
Codec ID : A_AC3
Duration : 1h 48mn
Bit rate mode : Constant
Bit rate : 192 Kbps
Channel count : 2 channels
Channel positions : Front: L R
Sampling rate : 48.0 KHz
Bit depth : 16 bits
Compression mode : Lossy
Stream size : 148 MiB (4%)
Language : English
Default : No
Forced : No
Text
ID : 4
Format : UTF-8
Codec ID : S_TEXT/UTF8
Codec ID/Info : UTF-8 Plain Text
Language : English
Default : No
Forced : No
Menu
00:00:00.000 : en:Start
00:07:14.000 : en:Eddie Dodd
00:14:00.000 : en:Mrs. Kim
00:16:50.000 : en:"Everybody's Guilty."
00:21:06.000 : en:Shu Kai Kim
00:24:13.000 : en:Reviewing The Case
00:25:56.000 : en:Kitty Greer, Pi
00:27:31.000 : en:Cecil Skell
00:30:40.000 : en:Nothing But The Truth
00:34:31.000 : en:Robert Reynard, Da
00:38:35.000 : en:A Warning
00:41:29.000 : en:Aryan Army Visit
00:43:56.000 : en:"What Happened In Chinatown?"
00:47:28.000 : en:No Deal
00:52:15.000 : en:Opening Statements
00:54:21.000 : en:Detective Montell
00:55:34.000 : en:Detective Sklaroff
00:57:32.000 : en:Vincent Dennehy
01:00:38.000 : en:Art's Supplies
01:05:00.000 : en:Dead End
01:10:07.000 : en:Laura Gayley
01:12:49.000 : en:Richard Ortega
01:17:23.000 : en:True Believer
01:21:33.000 : en:"I Knew Jimmy Chin."
01:24:06.000 : en:Dismissed
01:27:16.000 : en:Dennehy Comes Clean
01:32:57.000 : en:Justice?
01:38:02.000 : en:Reynard Testifies

Скриншоты

Скачать

Скачать торрент!

Как скачивать? · Что такое торрент? · Рейтинг и ограничения

Сайт не распространяет и не хранит электронные версии произведений, а лишь предоставляет доступ к создаваемому пользователями каталогу ссылок на торрент-файлы, которые содержат только списки хеш-сумм

[Профиль] [ЛС]
Показать сообщения:    
Ответить на тему

Текущее время: Сегодня 20:09

Часовой пояс: GMT + 4



Вы не можете начинать темы
Вы не можете отвечать на сообщения
Вы не можете редактировать свои сообщения
Вы не можете удалять свои сообщения
Вы не можете голосовать в опросах
Вы не можете прикреплять файлы к сообщениям
Вы не можете скачивать файлы