Капитан Филлипс / Captain Phillips (Пол Гринграсс / Paul Greengrass) [2013, США, боевик, триллер, драма, криминал, приключения, биография, TeleSynch] VO

Ответить на тему
 
Автор Сообщение

user ®

Стаж: 7 лет 7 месяцев

Сообщений: 20008

Пост Пост: #1 от 10-Ноя-2013 17:30

[Цитировать]

Капитан Филлипс / Captain Phillips
Страна: США
Жанр: боевик, триллер, драма, криминал, приключения, биография
Год выпуска: 2013
Продолжительность: 02:07:12
Перевод: Любительский (одноголосый) [VANO]
Cубтитры: нет
Режиссер: Пол Гринграсс / Paul Greengrass
В ролях: Том Хэнкс, Баркхад Абди, Баркхад Абдирахман, Файсал Ахмед, Махат М. Али, Майкл Чернус, Кэтрин Кинер, Дэвид Уоршофски, Кори Джонсон, Крис Малки
Описание: В начале апреля 2009 года, близ берегов Африки, несколько сомалийских пиратов атакуют и пытаются захватить массивный контейнеровоз MV Maersk Alabama. Команда корабля активно сопротивляется и в конце концов не даёт взять себя в плен. Захватчики вынуждены ретироваться и покинуть судно на небольшом катере, прихватив с собой немолодого капитана Ричарда Филлипса…


Качество видео: TeleSynch
Формат видео: AVI
Видео: XviD, 720x352, 2107 kb/s, 29.970 fps
Аудио: Rus: MP3, 2 ch, 128 kb/s, 44.1 KHz ,Eng: MP3, 2 ch, 128 kb/s, 48 KHz

MediaInfo

General
Complete name : E:\ФИЛЬМЫ\Kapitan.Filips.2013.L1.TS.2100Mb.avi
Format : AVI
Format/Info : Audio Video Interleave
Format profile : OpenDML
File size : 2.12 GiB
Duration : 2h 7mn
Overall bit rate : 2 386 Kbps
Writing application : VirtualDubMod 1.5.10.2 (build 2540/release)
Writing library : VirtualDubMod build 2540/release
Video
ID : 0
Format : MPEG-4 Visual
Format profile : Advanced Simple@L5
Format settings, BVOP : 2
Format settings, QPel : No
Format settings, GMC : No warppoints
Format settings, Matrix : Default (MPEG)
Muxing mode : Packed bitstream
Codec ID : XVID
Codec ID/Hint : XviD
Duration : 2h 7mn
Bit rate : 2 107 Kbps
Width : 720 pixels
Height : 352 pixels
Display aspect ratio : 2.045
Frame rate : 29.970 fps
Color space : YUV
Chroma subsampling : 4:2:0
Bit depth : 8 bits
Scan type : Progressive
Compression mode : Lossy
Bits/(Pixel*Frame) : 0.277
Stream size : 1.87 GiB (88%)
Writing library : XviD 64
Audio #1
ID : 1
Format : MPEG Audio
Format version : Version 1
Format profile : Layer 3
Codec ID : 55
Codec ID/Hint : MP3
Duration : 2h 7mn
Bit rate mode : Constant
Bit rate : 128 Kbps
Channel(s) : 2 channels
Sampling rate : 44.1 KHz
Compression mode : Lossy
Stream size : 116 MiB (5%)
Alignment : Split accross interleaves
Interleave, duration : 33 ms (1.00 video frame)
Interleave, preload duration : 500 ms
Audio #2
ID : 2
Format : MPEG Audio
Format version : Version 1
Format profile : Layer 3
Mode : Joint stereo
Mode extension : MS Stereo
Codec ID : 55
Codec ID/Hint : MP3
Duration : 2h 7mn
Bit rate mode : Constant
Bit rate : 128 Kbps
Channel(s) : 2 channels
Sampling rate : 48.0 KHz
Compression mode : Lossy
Stream size : 116 MiB (5%)
Alignment : Split accross interleaves
Interleave, duration : 33 ms (1.00 video frame)
Interleave, preload duration : 500 ms

Скриншот c названием фильма

Скриншоты

Скачать

Скачать торрент!

Как скачивать? · Что такое торрент? · Рейтинг и ограничения

Сайт не распространяет и не хранит электронные версии произведений, а лишь предоставляет доступ к создаваемому пользователями каталогу ссылок на торрент-файлы, которые содержат только списки хеш-сумм

[Профиль] [ЛС]
Показать сообщения:    
Ответить на тему

Текущее время: Сегодня 06:26

Часовой пояс: GMT + 4



Вы не можете начинать темы
Вы не можете отвечать на сообщения
Вы не можете редактировать свои сообщения
Вы не можете удалять свои сообщения
Вы не можете голосовать в опросах
Вы не можете прикреплять файлы к сообщениям
Вы не можете скачивать файлы