Богиня / Goddess (Марк Лампрелл / Mark Lamprell) [2013, Австралия, мюзикл, мелодрама, комедия, HDRip] MVO

Ответить на тему
 
Автор Сообщение

user ®

Стаж: 7 лет 7 месяцев

Сообщений: 20008

Пост Пост: #1 от 10-Ноя-2013 17:30

[Цитировать]

Богиня / Goddess- Страна: Австралия
Жанр: мюзикл, мелодрама, комедия
Год выпуска: 2013
Продолжительность: 01:43:50
Перевод: Профессиональный (многоголосый закадровый)
Cубтитры: нет-Режиссер: Марк Лампрелл / Mark Lamprell
В ролях: Лора Мишель Келли, Ронан Китинг, Магда Шубански, Дастин Клер, Хьюго Джонстон-Барт, Тэмсин Кэрролл, Корин Грант, Пиа Миранда, Натали Трэн, Камерон Лион.
Описание: Элсбет Диккенс — домохозяйка и мама двух чудесных близнецов. Её муж Джеймс работает в Гринпис и постоянно отсутствует дома, спасая то китов, то осьминогов. Чтобы между ними была какая то связь, Джеймс установил дома веб-камеру. Однажды Элсбет решила спеть перед ней песню, не зная, что трансляция идёт в интернет, и на следующий день проснулась знаменитой. Ей предложило контракт крупное рекламное агентство, и она уехала в столицу, оставив близнецов на няню. Столичная жизнь полна соблазнов, Элсбет ждёт мировой контракт. Что она выберет — славу и деньги или любовь мужа, которого никогда нет дома?-Автор рипа: avproh
Качество видео: HDRip
Формат видео: AVI | Sample
Видео: 720x304 (2.35:1), 24.000 fps, XviD 65 ~865 kbps avg, 0.17 bit/pixel
Аудио: 48 kHz, MPEG Layer 3, 2 ch, ~128.00 kbps avg

Скриншоты

Медиаинфо

Format : AVI
Format/Info : Audio Video Interleave
File size : 745 MiB
Duration : 1h 43mn
Overall bit rate : 1 003 Kbps
Writing application : VirtualDubModRus 1.5.10.2 (build 2542/release)
Writing library : VirtualDubMod build 2542/release
Video
ID : 0
Format : MPEG-4 Visual
Format profile : Advanced Simple@L5
Format settings, BVOP : Yes
Format settings, QPel : No
Format settings, GMC : No warppoints
Format settings, Matrix : Custom
Codec ID : XVID
Codec ID/Hint : XviD
Duration : 1h 43mn
Bit rate : 865 Kbps
Width : 720 pixels
Height : 304 pixels
Display aspect ratio : 2.35:1
Frame rate : 24.000 fps
Color space : YUV
Chroma subsampling : 4:2:0
Bit depth : 8 bits
Scan type : Progressive
Bits/(Pixel*Frame) : 0.165
Stream size : 643 MiB (86%)
Writing library : XviD 65
Audio
ID : 1
Format : MPEG Audio
Format version : Version 1
Format profile : Layer 3
Mode : Joint stereo
Mode extension : MS Stereo
Codec ID : 55
Codec ID/Hint : MP3
Duration : 1h 43mn
Bit rate mode : Constant
Bit rate : 128 Kbps
Channel(s) : 2 channels
Sampling rate : 48.0 KHz
Stream size : 95.1 MiB (13%)
Alignment : Aligned on interleaves
Interleave, duration : 42 ms (1.00 video frame)
Interleave, preload duration : 504 ms
Writing library : LAME3.99 (alpha)ЄЄ
Скачать

Скачать торрент!

Как скачивать? · Что такое торрент? · Рейтинг и ограничения

Сайт не распространяет и не хранит электронные версии произведений, а лишь предоставляет доступ к создаваемому пользователями каталогу ссылок на торрент-файлы, которые содержат только списки хеш-сумм

[Профиль] [ЛС]
Показать сообщения:    
Ответить на тему

Текущее время: Сегодня 20:36

Часовой пояс: GMT + 4



Вы не можете начинать темы
Вы не можете отвечать на сообщения
Вы не можете редактировать свои сообщения
Вы не можете удалять свои сообщения
Вы не можете голосовать в опросах
Вы не можете прикреплять файлы к сообщениям
Вы не можете скачивать файлы