Росомаха: Бессмертный / The Wolverine (Джеймс Мэнголд / James Mangold) [2013, США, Фантастика, фэнтези, боевик, приключения, BDRip] [Театральная версия / Theatrical cut] MVO (Baibako)

Ответить на тему
 
Автор Сообщение

user ®

Стаж: 7 лет 7 месяцев

Сообщений: 20008

Пост Пост: #1 от 10-Ноя-2013 17:30

[Цитировать]

Росомаха: Бессмертный / The Wolverine- Год выпуска: 2013
Выпущено: Австралия, США / 20th Century Fox Film Corporation
Жанр: фантастика, фэнтези, боевик, приключения
Продолжительность: 02:06:08
Перевод: Любительский (многоголосый закадровый) Baibako
Cубтитры: нет-Режиссер:
Джеймс Мэнголд / James Mangold-В ролях:
Хью Джекман (Logan), Тао Окамото (Mariko), Рила Фукусима (Yukio), Светлана Ходченкова (Viper), Уилл Юн Ли (Harada), Харукико Яманоути (Yashida), Хироюки Санада (Shingen), Брайан Ти (Noburo), Кен Ямамура (Young Yashida), Фамке Янссен (Jean Grey), Нобутака Аояги (Security)-Описание:
Новая глава приключений Росомахи развернётся в Японии, где Логану предстоит выяснить, что острее — когти Росомахи или меч Серебряного Самурая.-IMDB | КиноПоиск | Сэмпл |-Тип релиза: BDRip [BDREMUX]
Контейнер: AVI
Видео: 720x304 (2.37:1), 23.976 fps, XviD build 73 ~1263 kbps avg, 0.24 bit/pixel
Аудио: 48 kHz, AC3 Dolby Digital, 3/2 (L,C,R,l,r) + LFE ch, ~384.00 kbps avg
-

Скриншоты

MediaInfo

General
Complete name                            : D:\Rosomaha_Bessmertnyi_2013_BDRip_MVO_by_Dalemake.avi
Format                                   : AVI
Format/Info                              : Audio Video Interleave
File size                                : 1.46 GiB
Duration                                 : 2h 6mn
Overall bit rate                         : 1 657 Kbps
Writing application                      : VirtualDubMod 1.5.10.3 | www.virtualdub-fr.org || (build 2550/release)
Writing library                          : VirtualDubMod build 2550/release
Video
ID                                       : 0
Format                                   : MPEG-4 Visual
Format profile                           : Advanced Simple@L5
Format settings, BVOP                    : 1
Format settings, QPel                    : No
Format settings, GMC                     : No warppoints
Format settings, Matrix                  : Custom
Codec ID                                 : XVID
Codec ID/Hint                            : XviD
Duration                                 : 2h 6mn
Bit rate                                 : 1 263 Kbps
Width                                    : 720 pixels
Height                                   : 304 pixels
Display aspect ratio                     : 2.35:1
Frame rate                               : 23.976 fps
Color space                              : YUV
Chroma subsampling                       : 4:2:0
Bit depth                                : 8 bits
Scan type                                : Progressive
Compression mode                         : Lossy
Bits/(Pixel*Frame)                       : 0.241
Stream size                              : 1.11 GiB (76%)
Writing library                          : XviD 73
Audio
ID                                       : 1
Format                                   : AC-3
Format/Info                              : Audio Coding 3
Mode extension                           : CM (complete main)
Format settings, Endianness              : Big
Codec ID                                 : 2000
Duration                                 : 2h 6mn
Bit rate mode                            : Constant
Bit rate                                 : 384 Kbps
Channel(s)                               : 6 channels
Channel positions                        : Front: L C R, Side: L R, LFE
Sampling rate                            : 48.0 KHz
Bit depth                                : 16 bits
Compression mode                         : Lossy
Stream size                              : 346 MiB (23%)
Alignment                                : Split accross interleaves
Interleave, duration                     : 42 ms (1.00 video frame)
Interleave, preload duration             : 500 ms
-
Скачать

Скачать торрент!

Как скачивать? · Что такое торрент? · Рейтинг и ограничения

Сайт не распространяет и не хранит электронные версии произведений, а лишь предоставляет доступ к создаваемому пользователями каталогу ссылок на торрент-файлы, которые содержат только списки хеш-сумм

[Профиль] [ЛС]
Показать сообщения:    
Ответить на тему

Текущее время: Сегодня 04:27

Часовой пояс: GMT + 4



Вы не можете начинать темы
Вы не можете отвечать на сообщения
Вы не можете редактировать свои сообщения
Вы не можете удалять свои сообщения
Вы не можете голосовать в опросах
Вы не можете прикреплять файлы к сообщениям
Вы не можете скачивать файлы