Далеко от дома / Вдали от дома: Приключения жёлтого пса / Far from Home: The Adventures of Yellow Dog (Филлип Борсос / Phillip Borsos) [1995, США, приключения, семейный, HDTV 1080i] MVO (1 канал) + VO (Stalk) + Sub Eng + Original Eng

Ответить на тему
 
Автор Сообщение

user ®

Стаж: 7 лет 7 месяцев

Сообщений: 20008

Пост Пост: #1 от 09-Ноя-2013 23:10

[Цитировать]

Вдали от дома: Приключения жёлтого пса / Far from Home: The Adventures of Yellow Dog
Страна: США
Студия: Twentieth Century Fox Film Corporation
Жанр: приключения, семейный
Год выпуска: 1995
Продолжительность: 01:14:33
Перевод 1: Профессиональный (многоголосый закадровый) 1 канал
Перевод 2: Одноголосый закадровый (Stalk)
Cубтитры: английские
Оригинальная аудиодорожка: английский
Режиссер: Филлип Борсос / Phillip Borsos
В ролях: Мими Роджерс, Брюс Дэвисон, Джесси Брэдфорд, Том Бауэр, Джоэл Палмер, Мэтью Бэннетт
Описание: В этом приключенческом фильме рассказывается об отважном и мужественном двенадцатилетнем подростке, оказавшемся вместе с псом по имени Желтый один на один с дикой природой Канады. Вместе с отцом они отправились в дальнее поселение лесорубов по океану, но налетевший шторм перевернул их катер, когда сын проверял крепление своей лодки. Отец остался на катере, а лодку с мальчиком и собакой выбросило на пустынный берег. В течение многих дней он шел по дикой тайге, питаясь тем, что находил в лесу со своим верным псом.
Фильм изобилует великолепными съёмками дикой канадской природы и сопровождается превосходной музыкой...

IMDB
Доп. информация:
За дополнительные дороги спасибо milta, Marina, Stalk
Тип релиза: HDTV 1080i
Контейнер: MKV
Видео: AVC 1920x1080 (16:9) 25.0fps Bit rate 9271Kbps
Аудио 1: MP2 48.0KHz 2ch 224 Kbps rus - MVO
Аудио 2: AC3 48.0KHz 2ch 192 Kbps rus - VO
Аудио 3: AC3 48.0KHz 2ch 192 Kbps eng
Формат субтитров: softsub (SRT)

MediaInfo

Общее
Уникальный идентификатор : 212868708850598615001107769330642081394 (0xA02505A5B6BA441AA3D6ED017E5E5672)
Полное имя : E:\torrent\The Adventures of Yellow Dog_HDTV1080i.mkv
Формат : Matroska
Версия формата : Version 4 / Version 2
Размер файла : 5,32 Гбайт
Продолжительность : 1 ч. 15 м.
Общий поток : 10,1 Мбит/сек
Дата кодирования : UTC 2013-11-09 00:27:03
Программа кодирования : mkvmerge v6.4.1 ('Omega Point') built on Sep 16 2013 22:05:10
Библиотека кодирования : libebml v1.3.0 + libmatroska v1.4.1
Видео
Идентификатор : 1
Формат : AVC
Формат/Информация : Advanced Video Codec
Профиль формата : High@L4.0
Параметр CABAC формата : Да
Параметр ReFrames формата : 3 кадра
Идентификатор кодека : V_MPEG4/ISO/AVC
Продолжительность : 1 ч. 15 м.
Битрейт : 9271 Кбит/сек
Ширина : 1920 пикселей
Высота : 1080 пикселей
Соотношение сторон : 16:9
Режим частоты кадров : Постоянный
Частота кадров : 25,000 кадров/сек
Стандарт вещания : Component
Цветовое пространство : YUV
Субдискретизация насыщенности : 4:2:0
Битовая глубина : 8 бит
Тип развёртки : Чересстрочная
Порядок развёртки : Верхнее поле первое
Бит/(Пиксели*Кадры) : 0.179
Размер потока : 4,89 Гбайт (92%)
Заголовок : The Adventures of Yellow Dog_HDTV1080i
Default : Да
Forced : Нет
Основные цвета : BT.709
Характеристики трансфера : BT.709
Коэффициенты матрицы : BT.709
Аудио #1
Идентификатор : 2
Формат : MPEG Audio
Версия формата : Version 1
Профиль формата : Layer 2
Идентификатор кодека : A_MPEG/L2
Идентификатор кодека/Подсказка : MP2
Продолжительность : 1 ч. 15 м.
Вид битрейта : Постоянный
Битрейт : 224 Кбит/сек
Каналы : 2 канала
Частота : 48,0 КГц
Метод сжатия : С потерями
Размер потока : 121 Мбайт (2%)
Заголовок : The Adventures of Yellow Dog_MP2_2ch_MVO_1 kanal
Язык : Russian
Default : Да
Forced : Нет
Аудио #2
Идентификатор : 3
Формат : AC-3
Формат/Информация : Audio Coding 3
Расширение режима : CM (complete main)
Параметр Endianness формата : Big
Идентификатор кодека : A_AC3
Продолжительность : 1 ч. 15 м.
Вид битрейта : Постоянный
Битрейт : 192 Кбит/сек
Каналы : 2 канала
Расположение каналов : Front: L R
Частота : 48,0 КГц
Битовая глубина : 16 бит
Метод сжатия : С потерями
Размер потока : 104 Мбайт (2%)
Заголовок : The Adventures of Yellow Dog_AC3_2ch_VO_Stalk
Язык : Russian
Default : Нет
Forced : Нет
Аудио #3
Идентификатор : 4
Формат : AC-3
Формат/Информация : Audio Coding 3
Расширение режима : CM (complete main)
Параметр Endianness формата : Big
Идентификатор кодека : A_AC3
Продолжительность : 1 ч. 15 м.
Вид битрейта : Постоянный
Битрейт : 192 Кбит/сек
Каналы : 2 канала
Расположение каналов : Front: L R
Частота : 48,0 КГц
Битовая глубина : 16 бит
Метод сжатия : С потерями
Размер потока : 104 Мбайт (2%)
Заголовок : The Adventures of Yellow Dog_AC3_2ch_original eng
Язык : English
Default : Нет
Forced : Нет
Текст
Идентификатор : 5
Формат : UTF-8
Идентификатор кодека : S_TEXT/UTF8
Идентификатор кодека/Информация : UTF-8 Plain Text
Заголовок : The Adventures of Yellow Dog_sub. eng
Язык : English
Default : Нет
Forced : Нет

Скриншот с названием фильма

Скриншоты


Скачать

Скачать торрент!

Как скачивать? · Что такое торрент? · Рейтинг и ограничения

Сайт не распространяет и не хранит электронные версии произведений, а лишь предоставляет доступ к создаваемому пользователями каталогу ссылок на торрент-файлы, которые содержат только списки хеш-сумм

[Профиль] [ЛС]
Показать сообщения:    
Ответить на тему

Текущее время: Сегодня 16:42

Часовой пояс: GMT + 4



Вы не можете начинать темы
Вы не можете отвечать на сообщения
Вы не можете редактировать свои сообщения
Вы не можете удалять свои сообщения
Вы не можете голосовать в опросах
Вы не можете прикреплять файлы к сообщениям
Вы не можете скачивать файлы