Сирота казанская (Владимир Машков) [1997, Мелодрама, Комедия, DVDRip-AVC]

Ответить на тему
 
Автор Сообщение

user ®

Стаж: 7 лет 7 месяцев

Сообщений: 20008

Пост Пост: #1 от 09-Ноя-2013 23:10

[Цитировать]

Сирота казанская- Жанр: Мелодрама, Комедия
Год выпуска: 1997
Продолжительность: 01:21:29-Режиссер: Владимир Машков
В ролях: Елена Шевченко, Николай Фоменко, Олег Табаков, Валентин Гафт, Лев Дуров, Виктор Павлов, Татьяна Рогозина, Федор Валиков, Владимир Машков, Михаил Филипчук и др.-Описание: Молодая учительница Настя решила после смерти матери опубликовать ее не отправленное письмо некоему Павлу… Так, однажды в новогоднюю ночь, в поселке появляются три Павла — очень неординарные личности. Труднее всего приходится ее жениху Коле: одно дело сирота, а тут сразу три отца!- -Автор: AngelOfTrue--Качество видео: DVDRip-AVC
Формат видео: MKV
Видео: 688x460@626x460 (4:3), 23,976 fps, x264 ~2113 kbps avg, 0.278 bit/pixel
Аудио: AC3 Dolby Digital / 48 KHz / 448 kbps / 3/2 (L,C,R,l,r) + LFE ch

x264 log

avs [info]: 688x460p 10:11 @ 24000/1001 fps (cfr)
x264 [warning]: --psnr used with psy on: results will be invalid!
x264 [warning]: --tune psnr should be used if attempting to benchmark psnr!
x264 [info]: using SAR=10/11
x264 [info]: using cpu capabilities: MMX2 SSE2Fast SSSE3 SSE4.2 AVX AVX2 FMA3 LZCNT BMI1 BMI2
x264 [info]: profile High, level 3.1
x264 [info]: frame I:739 Avg QP:17.33 size: 46439 PSNR Mean Y:46.27 U:49.77 V:51.20 Avg:47.25 Global:46.89
x264 [info]: frame P:21926 Avg QP:19.47 size: 21999 PSNR Mean Y:44.01 U:48.32 V:49.94 Avg:45.11 Global:44.60
x264 [info]: frame B:94565 Avg QP:21.45 size: 8190 PSNR Mean Y:42.88 U:47.80 V:49.61 Avg:44.07 Global:43.57
x264 [info]: consecutive B-frames: 1.0% 0.7% 3.4% 10.8% 10.7% 68.3% 2.9% 0.7% 0.6% 0.3% 0.3% 0.2%
x264 [info]: mb I I16..4: 3.1% 82.4% 14.5%
x264 [info]: mb P I16..4: 0.7% 16.1% 1.1% P16..4: 29.3% 35.4% 13.4% 1.6% 0.1% skip: 2.3%
x264 [info]: mb B I16..4: 0.1% 1.7% 0.1% B16..8: 31.7% 21.3% 3.2% direct:13.6% skip:28.3% L0:34.9% L1:36.6% BI:28.6%
x264 [info]: 8x8 transform intra:88.8% inter:58.7%
x264 [info]: direct mvs spatial:97.8% temporal:2.2%
x264 [info]: coded y,uvDC,uvAC intra: 93.3% 91.0% 63.3% inter: 40.9% 39.2% 9.2%
x264 [info]: i16 v,h,dc,p: 45% 15% 9% 31%
x264 [info]: i8 v,h,dc,ddl,ddr,vr,hd,vl,hu: 11% 9% 8% 9% 12% 13% 12% 13% 14%
x264 [info]: i4 v,h,dc,ddl,ddr,vr,hd,vl,hu: 11% 6% 9% 9% 14% 14% 13% 12% 12%
x264 [info]: i8c dc,h,v,p: 38% 23% 18% 20%
x264 [info]: Weighted P-Frames: Y:20.9% UV:5.6%
x264 [info]: ref P L0: 38.3% 10.8% 18.3% 9.2% 6.8% 5.3% 4.3% 2.7% 2.2% 1.7% 0.3% 0.0%
x264 [info]: ref B L0: 79.7% 10.8% 3.6% 2.0% 1.4% 1.1% 0.8% 0.4% 0.2%
x264 [info]: ref B L1: 96.5% 3.5%
x264 [info]: SSIM Mean Y:0.9779074 (16.558db)
x264 [info]: PSNR Mean Y:43.109 U:47.911 V:49.683 Avg:44.282 Global:43.756 kb/s:2112.61
x264 [total]: encoded 117230 frames, 12.03 fps, 2112.61 kb/s

-

MediaInfo

Формат : Matroska
Версия формата : Version 4 / Version 2
Размер файла : 1,46 Гбайт
Продолжительность : 1 ч. 21 м.
Общий поток : 2562 Кбит/сек
Дата кодирования : UTC 2013-11-09 12:34:29
Программа кодирования : mkvmerge v6.1.0 ('Old Devil') built on Mar 4 2013 09:10:42
Библиотека кодирования : libebml v1.3.0 + libmatroska v1.4.0
Видео
Идентификатор : 1
Формат : AVC
Формат/Информация : Advanced Video Codec
Профиль формата : High@L3.1
Параметр CABAC формата : Да
Параметр ReFrames формата : 10 кадров
Идентификатор кодека : V_MPEG4/ISO/AVC
Продолжительность : 1 ч. 21 м.
Битрейт : 2113 Кбит/сек
Ширина : 688 пикселей
Высота : 460 пикселей
Соотношение сторон : 4:3
Режим частоты кадров : Постоянный
Частота кадров : 23,976 кадра/сек
Цветовое пространство : YUV
Субдискретизация насыщенности : 4:2:0
Битовая глубина : 8 бит
Тип развёртки : Прогрессивная
Бит/(Пиксели*Кадры) : 0.278
Размер потока : 1,17 Гбайт (81%)
Заголовок : Sirota.Kazanskaya.1997.RUS.DVDRip-AVC.AC3.-AngelOfTrue
Библиотека кодирования : x264 core 130 r2273 b3065e6
Настройки программы : cabac=1 / ref=10 / deblock=1:-2:-1 / analyse=0x3:0x133 / me=umh / subme=11 / psy=1 / psy_rd=1.00:0.10 / mixed_ref=1 / me_range=32 / chroma_me=1 / trellis=2 / 8x8dct=1 / cqm=0 / deadzone=21,11 / fast_pskip=0 / chroma_qp_offset=-3 / threads=6 / lookahead_threads=1 / sliced_threads=0 / nr=0 / decimate=0 / interlaced=0 / bluray_compat=0 / constrained_intra=0 / bframes=11 / b_pyramid=2 / b_adapt=2 / b_bias=0 / direct=3 / weightb=1 / open_gop=0 / weightp=2 / keyint=250 / keyint_min=23 / scenecut=40 / intra_refresh=0 / rc=2pass / mbtree=0 / bitrate=2113 / ratetol=1.0 / qcomp=0.65 / qpmin=10 / qpmax=51 / qpstep=4 / cplxblur=20.0 / qblur=0.5 / ip_ratio=1.35 / pb_ratio=1.25 / aq=2:1.00
Язык : Russian
Default : Да
Forced : Нет
Аудио
Идентификатор : 2
Формат : AC-3
Формат/Информация : Audio Coding 3
Расширение режима : CM (complete main)
Параметр Endianness формата : Big
Идентификатор кодека : A_AC3
Продолжительность : 1 ч. 21 м.
Вид битрейта : Постоянный
Битрейт : 448 Кбит/сек
Каналы : 6 каналов
Расположение каналов : Front: L C R, Side: L R, LFE
Частота : 48,0 КГц
Битовая глубина : 16 бит
Метод сжатия : С потерями
Размер потока : 261 Мбайт (17%)
Заголовок : AC3 Dolby Digital / 48 KHz / 448 kbps / 3/2 (L,C,R,l,r) + LFE ch
Язык : Russian
Default : Да
Forced : Да

-

Скриншоты (анаморф)


Скачать

Скачать торрент!

Как скачивать? · Что такое торрент? · Рейтинг и ограничения

Сайт не распространяет и не хранит электронные версии произведений, а лишь предоставляет доступ к создаваемому пользователями каталогу ссылок на торрент-файлы, которые содержат только списки хеш-сумм

[Профиль] [ЛС]
Показать сообщения:    
Ответить на тему

Текущее время: Сегодня 06:13

Часовой пояс: GMT + 4



Вы не можете начинать темы
Вы не можете отвечать на сообщения
Вы не можете редактировать свои сообщения
Вы не можете удалять свои сообщения
Вы не можете голосовать в опросах
Вы не можете прикреплять файлы к сообщениям
Вы не можете скачивать файлы