Фобия / Phobia (Джон Кейес / Jon Keeyes) [2013, США, ужасы, триллер, WEB-DLRip] DVO + Original (Eng)

Ответить на тему
 
Автор Сообщение

user ®

Стаж: 7 лет 7 месяцев

Сообщений: 20008

Пост Пост: #1 от 09-Ноя-2013 23:10

[Цитировать]

ФобияPhobia- Страна: США
Жанр: ужасы, триллер
Год выпуска: 2013
Продолжительность: 01:30:40-Перевод: Любительский (двухголосый закадровый) [den904 и DeadSno]
Субтитры: нет
Режиссер: Джон Кейес / Jon Keeyes
В ролях: Эрика Лирсен, Чейз Райан Джеффри, Мэттью Томпкинс, Джонатан Брукс, Мэтт Мур, Стефани Родс, Кэролин Уикуайр, Тиффани Лонсдэйл, Трей Валпоул, Эмбер Лоу, Майкл Крэбтри, Пэм Догерти-Описание: Героиня этого фильма – известный психотерапевт, специализирующаяся на лечении пациентов, страдающих различными фобиями. Однажды к ней на лечение поступает человек, твёрдо убежденный в своей вампирской сущности. Все попытки помочь ему справиться с этой психической болезнью ни к чему не приводят, к тому же, общаясь с пациентом, героиня начинает понимать, что тот замешан в какой-то таинственной истории, связанной с убийством...-

-

Доп. Информация

Сценарий: Энн Гибсон / Anne Gibson
Продюсер: Блейк Кэлхун / Blake Calhoun, Энн Гибсон / Anne Gibson, Терри Мартин / Terri Martin
Оператор: Ричард Клэбауг / Richard Clabaugh
Композитор: Чад Кокс / Chad Cox
Мировая премьера: 1 сентября 2013
-Качество: WEB-DLRip
Контейнер: AVI
Видео: XviD, 720x384 (1.875), 1599 kbps, 23,976 fps, 0,241 bpp
Аудио №1: Russian: AC3 / 2.0 / 48 kHz / 192 kbps / 16 bit
Аудио №2: English: AC3 / 5.1 / 48 kHz / 384 kbps / 16 bit-

Media Info

General
Complete name : G:\Phobia.2013.L_WEBDLRip.avi
Format : AVI
Format/Info : Audio Video Interleave
File size : 1.39 GiB
Duration : 1h 30mn
Overall bit rate : 2 190 Kbps
Writing application : VirtualDubMod 1.5.10.2 (build 2542/release)
Writing library : VirtualDubMod build 2542/release
Video
ID : 0
Format : MPEG-4 Visual
Format profile : Advanced Simple@L5
Format settings, BVOP : 2
Format settings, QPel : No
Format settings, GMC : No warppoints
Format settings, Matrix : Default (H.263)
Codec ID : XVID
Codec ID/Hint : XviD
Duration : 1h 30mn
Bit rate : 1 600 Kbps
Width : 720 pixels
Height : 384 pixels
Display aspect ratio : 1.875
Frame rate : 23.976 fps
Color space : YUV
Chroma subsampling : 4:2:0
Bit depth : 8 bits
Scan type : Progressive
Compression mode : Lossy
Bits/(Pixel*Frame) : 0.241
Stream size : 1.01 GiB (73%)
Writing library : XviD 1.2.1 (UTC 2008-12-04)
Audio #1
ID : 1
Format : AC-3
Format/Info : Audio Coding 3
Mode extension : CM (complete main)
Codec ID : 2000
Duration : 1h 30mn
Bit rate mode : Constant
Bit rate : 192 Kbps
Channel(s) : 2 channels
Channel positions : Front: L R
Sampling rate : 48.0 KHz
Bit depth : 16 bits
Compression mode : Lossy
Stream size : 125 MiB (9%)
Alignment : Split accross interleaves
Interleave, duration : 42 ms (1.00 video frame)
Interleave, preload duration : 500 ms
Audio #2
ID : 2
Format : AC-3
Format/Info : Audio Coding 3
Mode extension : CM (complete main)
Codec ID : 2000
Duration : 1h 30mn
Bit rate mode : Constant
Bit rate : 384 Kbps
Channel(s) : 6 channels
Channel positions : Front: L C R, Side: L R, LFE
Sampling rate : 48.0 KHz
Bit depth : 16 bits
Compression mode : Lossy
Stream size : 249 MiB (18%)
Alignment : Split accross interleaves
Interleave, duration : 42 ms (1.00 video frame)
Interleave, preload duration : 500 ms

Скриншот с названием фильма

Скриншоты

Скачать

Скачать торрент!

Как скачивать? · Что такое торрент? · Рейтинг и ограничения

Сайт не распространяет и не хранит электронные версии произведений, а лишь предоставляет доступ к создаваемому пользователями каталогу ссылок на торрент-файлы, которые содержат только списки хеш-сумм

[Профиль] [ЛС]
Показать сообщения:    
Ответить на тему

Текущее время: Сегодня 08:27

Часовой пояс: GMT + 4



Вы не можете начинать темы
Вы не можете отвечать на сообщения
Вы не можете редактировать свои сообщения
Вы не можете удалять свои сообщения
Вы не можете голосовать в опросах
Вы не можете прикреплять файлы к сообщениям
Вы не можете скачивать файлы