Смурфики 2 / The Smurfs 2 (Раджа Госнелл / Raja Gosnell) [2013, мультфильм, фэнтези, комедия, семейный, DVDRip] Dub

Ответить на тему
 
Автор Сообщение

user ®

Стаж: 8 лет 9 месяцев

Сообщений: 19851

Пост Пост: #1 от 09-Ноя-2013 17:30

[Цитировать]

Смурфики 2 / The Smurfs 2- Страна: США
Жанр: мультфильм, фэнтези, комедия, семейный
Продолжительность: 01:46:26
Год выпуска: 2013
Перевод: Профессиональный (дублированный)
Субтитры: нет
Режиссёр: Раджа Госнелл / Raja Gosnell
Роли озвучивали: Хэнк Азария, Нил Патрик Харрис, Брендан Глисон, Джейма Мейс, Джонатан Уинтерс, Кэти Перри, Кристина Риччи, Дж.Б. Смув, Джордж Лопес, Антон Ельчин.
Описание: Гаргамел создаёт Хакуса и Векси, как две капли воды похожую на смурфиков злобную парочку, надеясь всё-таки обрести магическую силу. Когда он узнаёт, что лишь настоящий смурф может дать ему то, что он хочет, и лишь Смурфетта способна превратить Хакуса и Векси в настоящих смурфов, Гаргамел похищает Смурфетту и берёт её с собой в Париж, планируя сделать её своей прислужницей. Но смурфики — Папа, Растяпа, Смельчак, Ворчун, Красавчик, Благоразумник — и их друзья из Нью-Йорка этого так не оставят. Тем более что к ним присоединился новорождённый Голубчик.
Автор рипа: avproh
Качество: DVDRip (исходник DVD5)
Формат: AVI | Sample
Видео: 640x352 (1.85:1), 25.000 fps, XviD 73 ~841 kbps avg, 0.15 bit/pixel
Аудио: 48 kHz, MPEG Layer 3, 2 ch, ~128.00 kbps avg

Скриншоты

Медиаинфо

Format : AVIFormat/Info : Audio Video InterleaveFile size : 745 MiBDuration : 1h 46mnOverall bit rate : 978 KbpsWriting application : VirtualDubMod 1.5.10.3 | (build 2550/release)Writing library : VirtualDubMod build 2550/release
VideoID : 0Format : MPEG-4 VisualFormat profile : Advanced Simple@L5Format settings, BVOP : YesFormat settings, QPel : NoFormat settings, GMC : No warppointsFormat settings, Matrix : CustomCodec ID : XVIDCodec ID/Hint : XviDDuration : 1h 46mnBit rate : 841 KbpsWidth : 640 pixelsHeight : 352 pixelsDisplay aspect ratio : 16:9Frame rate : 25.000 fpsColor space : YUVChroma subsampling : 4:2:0Bit depth : 8 bitsScan type : ProgressiveBits/(Pixel*Frame) : 0.149Stream size : 640 MiB (86%)Writing library : XviD 73
AudioID : 1Format : MPEG AudioFormat version : Version 1Format profile : Layer 3Codec ID : 55Codec ID/Hint : MP3Duration : 1h 46mnBit rate mode : ConstantBit rate : 128 KbpsChannel(s) : 2 channelsSampling rate : 48.0 KHzStream size : 97.5 MiB (13%)Alignment : Aligned on interleavesInterleave, duration : 40 ms (1.00 video frame)Interleave, preload duration : 504 msWriting library : LAME3.99rEncoding settings : -m s -V 4 -q 2 -lowpass 17 -b 128
Скачать

Скачать торрент!

Как скачивать? · Что такое торрент? · Рейтинг и ограничения

Сайт не распространяет и не хранит электронные версии произведений, а лишь предоставляет доступ к создаваемому пользователями каталогу ссылок на торрент-файлы, которые содержат только списки хеш-сумм

[Профиль] [ЛС]
Показать сообщения:    
Ответить на тему

Текущее время: Сегодня 01:02

Часовой пояс: GMT + 4



Вы не можете начинать темы
Вы не можете отвечать на сообщения
Вы не можете редактировать свои сообщения
Вы не можете удалять свои сообщения
Вы не можете голосовать в опросах
Вы не можете прикреплять файлы к сообщениям
Вы не можете скачивать файлы