Кровь из дальнего космоса / Gore from Outer Space (Хирохиса Сасаки / Hirohisa Sasaki) [1999, Япония, ужасы, фантастика, комедия, DVDRip] Sub Rus + Eng

Ответить на тему
 
Автор Сообщение

user ®

Стаж: 11 лет

Сообщений: 15151

Пост Пост: #1 от 09-Ноя-2013 17:30

[Цитировать]

Кровь из дальнего космосаGore From Outer Space- Страна: Япония
Жанр: ужасы, фантастика, комедия
Год выпуска: 2001
Продолжительность: 01:25:13-Перевод: Субтитры
Субтитры: русские, английские
Оригинальная аудиодорожка: японский
Режиссер: Хирохиса Сасаки / Hirohisa Sasaki
В ролях: Хироши Абе (FBI Agent), Садао Абе (Kiyohiko), Йошийоши Аракава (Taxi Driver), Томоми Курибаяси (Lucy), Киёси Куросава, Хитоми Мива (Satomi Kurahashi), Аими Накамура, Хидео Наката, Юми Йошиюки, Йошико Юра (Etsuko Mamiya)-Описание: Молодая женщина Сатоми вызывает полицию и утверждает, что её дочь была похищена, но муж Сатоми говорит, что у них никогда не было дочери. В это же время начинают поступать странные звонки от похитителей, и звонки эти поступают из дома родителей Сатоми. Полиция советует ей отправиться в родительский дом, чтобы узнать в чём дело и тут выясняется, что к похищению ребёнка, если он существует на самом деле, могут быть причастны инопланетяне.-
-Качество: DVDRip
Контейнер: AVI
Сэмпл: http://multi-up.com/921614
Видео: XviD, 688x368 (1.870), 984 kbps, 23,976 fps, 0,162 bpp
Аудио: японский / MP3 / 2.0 / 48 kHz / 144 kbps /-

Скриншоты

Media Info

General
Complete name : E:\Мои документы\Мое видео\Gore From Outer Space 2001\Gore.from.Outer.Space.2001.DVDrip.XviD-catatonia.avi
Format : AVI
Format/Info : Audio Video Interleave
File size : 698 MiB
Duration : 1h 25mn
Overall bit rate mode : Variable
Overall bit rate : 1 145 Kbps
Writing application : VirtualDubMod 1.5.4.1 (build 2178/release)
Writing library : VirtualDubMod build 2178/release
Video
ID : 0
Format : MPEG-4 Visual
Format profile : Advanced Simple@L5
Format settings, BVOP : 1
Format settings, QPel : No
Format settings, GMC : No warppoints
Format settings, Matrix : Default (H.263)
Codec ID : XVID
Codec ID/Hint : XviD
Duration : 1h 25mn
Bit rate : 985 Kbps
Width : 688 pixels
Height : 368 pixels
Display aspect ratio : 1.870
Frame rate : 23.976 fps
Color space : YUV
Chroma subsampling : 4:2:0
Bit depth : 8 bits
Scan type : Progressive
Compression mode : Lossy
Bits/(Pixel*Frame) : 0.162
Stream size : 600 MiB (86%)
Writing library : XviD 1.0.2 (UTC 2004-08-29)
Audio
ID : 1
Format : MPEG Audio
Format version : Version 1
Format profile : Layer 3
Mode : Joint stereo
Mode extension : MS Stereo
Codec ID : 55
Codec ID/Hint : MP3
Duration : 1h 25mn
Bit rate mode : Variable
Bit rate : 144 Kbps
Channel(s) : 2 channels
Sampling rate : 48.0 KHz
Compression mode : Lossy
Delay relative to video : 1s 968ms
Stream size : 90.1 MiB (13%)
Alignment : Split accross interleaves
Interleave, duration : 24 ms (0.58 video frame)
Interleave, preload duration : 1309 ms
Writing library : LAME3.90.
Encoding settings : -m j -V 4 -q 2 -lowpass 18 --abr 144
Language : Japanese
Скачать

Скачать торрент! Кровь из дальнего космоса / Gore from Outer Space (Хирохиса Сасаки / Hirohisa Sasaki) [1999, Япония, ужасы, фантастика, комедия, DVDRip] Sub Rus + Eng

Как скачивать? · Что такое торрент? · Рейтинг и ограничения

Сайт не распространяет и не хранит электронные версии произведений, а лишь предоставляет доступ к создаваемому пользователями каталогу ссылок на торрент-файлы, которые содержат только списки хеш-сумм

[Профиль] [ЛС]
Показать сообщения:    
Ответить на тему

Текущее время: Сегодня 18:31

Часовой пояс: GMT + 4



Вы не можете начинать темы
Вы не можете отвечать на сообщения
Вы не можете редактировать свои сообщения
Вы не можете удалять свои сообщения
Вы не можете голосовать в опросах
Вы не можете прикреплять файлы к сообщениям
Вы не можете скачивать файлы