Тихоокеанский рубеж / Pacific Rim (Гильермо дель Торо / Guillermo del Toro) [2013, США, фантастика, боевик, приключения, BDRip] DUB + Original Eng + Subs

Ответить на тему
 
Автор Сообщение

user ®

Стаж: 7 лет 7 месяцев

Сообщений: 20008

Пост Пост: #1 от 09-Ноя-2013 17:30

[Цитировать]

Тихоокеанский рубеж / Pacific Rim«Чтобы сражаться с монстрами, мы создали монстров» -
Страна: США
Жанр: фантастика, боевик, приключения
Год выпуска: 2013
Продолжительность: 02:11:16-Перевод: Профессиональный (дублированный) /Лицензия Blu-Ray CEE/
Оригинальная дорожка: Английский
Cубтитры: Русские (форс. + полные), Украинские (форс. + полные), Английские (полные + SDH + SDH-COLORED)-Режиссер: Гильермо дель Торо / Guillermo del Toro-В ролях: Чарли Ханнэм / Charlie Hunnam (Raleigh Becket), Идрис Эльба / Idris Elba (Stacker Pentecost), Ринко Кикути / Rinko Kikuchi (Mako Mori), Роберт Казински / Robert Kazinsky (в титрах: Rob Kazinsky) (Chuck Hansen), Макс Мартини / Max Martini (Herc Hansen), Чарли Дэй / Charlie Day (Dr. Newton Geiszler), Берн Горман / Burn Gorman (Gottlieb), Клифтон Коллинз мл. / Clifton Collins Jr. (Ops Tendo Choi), Рон Перлман / Ron Perlman (Hannibal Chau), Диего Клаттенхофф / Diego Klattenhoff (Yancy Becket), Брэд Уильям Хенке / Brad William Henke (Construction Foreman), Ларри Джо Кэмпбелл / Larry Joe Campbell (Construction Worker)-Описание:
Когда из морских глубин поднялись легионы чудовищ, известных как Кайдзу, началась война, которой суждено было забрать миллионы жизней и свести «человеческие ресурсы» почти к нулю всего за несколько лет. Чтобы сражаться с пришельцами, было создано специальное оружие: огромные роботы, названные Джегерами, они управлялись одновременно двумя пилотами, чьи сознания соединены с помощью нейронной связи. Но даже Джегеры оказываются почти бессильны перед лицом безжалостных Кайдзу. На грани поражения у защитников человечества нет выбора, кроме как обратиться к двум весьма сомнительным героям - никому не нужному бывшему пилоту и неопытному стажеру - которые объединились, чтобы повести в бой некогда легендарного, но сейчас устаревшего Джегера. Вместе они оказываются единственной надеждой человечества, последним препятствием перед надвигающимся апокалипсисом.
- -Качество видео: BDRip /исходник: Pacific.Rim.2013.1080p.Blu-ray.AVC.DTS-HD.MA.7.1-PENiS/
Формат видео: AVI-Видео: XviD / 704 x 400 / 16:9 / 2264 kbps / 23,976 fps
Аудио #1: AC3 Dolby Digital / 48 KHz / 448 kbps / 3/2 (L,C,R,l,r) + LFE ch /RUS/
Аудио #2: AC3 Dolby Digital / 48 KHz / 448 kbps / 3/2 (L,C,R,l,r) + LFE ch /ENG/-СЭМПЛ-Релиз: -

MediaInfo

General
Complete name : I:\Tihookeanskii.Rubezh.2013.DUAL.BDRip.XviD.AC3.-HQ-ViDEO.avi
Format : AVI
Format/Info : Audio Video Interleave
Format profile : OpenDML
File size : 2.91 GiB
Duration : 2h 11mn
Overall bit rate : 3 176 Kbps
Movie name : Pacific Rim (2013)
Director : Vaippp
Genre : Action/Adventure/Sci-Fi
Writing application : VirtualDubModRus 1.5.10.2 (build 2542/release)
Writing library : VirtualDubMod build 2542/release
Original source form/Name : Movie
Copyright : HQ-ViDEO
Comment : BDRip
Video
ID : 0
Format : MPEG-4 Visual
Format profile : Advanced Simple@L5
Format settings, BVOP : 2
Format settings, QPel : No
Format settings, GMC : No warppoints
Format settings, Matrix : Custom
Codec ID : XVID
Codec ID/Hint : XviD
Duration : 2h 11mn
Bit rate : 2 264 Kbps
Width : 704 pixels
Height : 400 pixels
Display aspect ratio : 16:9
Frame rate : 23.976 fps
Color space : YUV
Chroma subsampling : 4:2:0
Bit depth : 8 bits
Scan type : Progressive
Compression mode : Lossy
Bits/(Pixel*Frame) : 0.335
Stream size : 2.08 GiB (71%)
Writing library : XviD 73
Audio #1
ID : 1
Format : AC-3
Format/Info : Audio Coding 3
Mode extension : CM (complete main)
Format settings, Endianness : Big
Codec ID : 2000
Duration : 2h 11mn
Bit rate mode : Constant
Bit rate : 448 Kbps
Channel(s) : 6 channels
Channel positions : Front: L C R, Side: L R, LFE
Sampling rate : 48.0 KHz
Bit depth : 16 bits
Compression mode : Lossy
Stream size : 421 MiB (14%)
Alignment : Split accross interleaves
Interleave, duration : 42 ms (1.00 video frame)
Interleave, preload duration : 500 ms
Audio #2
ID : 2
Format : AC-3
Format/Info : Audio Coding 3
Mode extension : CM (complete main)
Format settings, Endianness : Big
Codec ID : 2000
Duration : 2h 11mn
Bit rate mode : Constant
Bit rate : 448 Kbps
Channel(s) : 6 channels
Channel positions : Front: L C R, Side: L R, LFE
Sampling rate : 48.0 KHz
Bit depth : 16 bits
Compression mode : Lossy
Stream size : 421 MiB (14%)
Alignment : Split accross interleaves
Interleave, duration : 42 ms (1.00 video frame)
Interleave, preload duration : 500 ms

Скриншоты



Скачать

Скачать торрент!

Как скачивать? · Что такое торрент? · Рейтинг и ограничения

Сайт не распространяет и не хранит электронные версии произведений, а лишь предоставляет доступ к создаваемому пользователями каталогу ссылок на торрент-файлы, которые содержат только списки хеш-сумм

[Профиль] [ЛС]
Показать сообщения:    
Ответить на тему

Текущее время: Сегодня 00:10

Часовой пояс: GMT + 4



Вы не можете начинать темы
Вы не можете отвечать на сообщения
Вы не можете редактировать свои сообщения
Вы не можете удалять свои сообщения
Вы не можете голосовать в опросах
Вы не можете прикреплять файлы к сообщениям
Вы не можете скачивать файлы