Пшеница / Mai Tian / Wheat (Хэ Пин / He Ping) [2009, Китай, Гонконг, драма, история, DVDRip] Sub Rus

Ответить на тему
 
Автор Сообщение

user ®

Стаж: 13 лет

Сообщений: 15071

Пост Пост: #1 от 09-Ноя-2013 04:00

[Цитировать]

Пшеница / Mai Tian / Wheat
Страна: Китай, Гонконг
Жанр: драма, история
Год выпуска: 2009
Продолжительность: 1:43:39
Перевод: Субтитры
Cубтитры: русские
Оригинальная аудиодорожка: китайский (мандаринский)
Режиссер: Хэ Пин / He Ping
В ролях: Бинбин Фань, Хуан Цзюэ, Ду Цзяи, Сюэци Ван, Чживэнь Ван, Джи Ванг, Хуан Суин
Описание: Действие происходит в Китае, в период битвы при Чанпине между царствами Чжао и Цинь во время эпохи Чжаньго («Воюющие царства» 481-212 до н. э.). Мужчины царства Чжао ушли на войну и оставили женщин дома. Царство Цинь разгромило Чжао и все воины были убиты, но женщины еще не знают об этом. Два дезертира Цинь оказываются в городе Чжао и вынуждены выдавать себя за Чжао, чтобы остаться в живых.
Сэмпл: http://multi-up.com/921497
Качество видео: DVDRip
Формат видео: AVI
Видео: xvid, 624x272, 25,000 кадров/сек, 1495 Кбит/сек
Аудио: AC-3, 48,0 КГц, 384 Кбит/сек, 6 каналов (Front: L C R, Side: L R, LFE)
Формат субтитров: softsub (SRT)

Примеры субтитров

33
00:03:50,300 --> 00:03:56,300
[ДЕНЬ ЗОЛОТА]
34
00:04:49,900 --> 00:04:53,900
Сегодня в городе Лу-и праздник
35
00:04:54,800 --> 00:04:56,800
Выпив это вино,
36
00:04:57,400 --> 00:05:00,300
вы станете мужем и женой
37
00:05:29,100 --> 00:05:34,000
Господин, развяжите шелковый шнурок на прическе госпожи
38
00:05:49,400 --> 00:05:50,500
Господин!
39
00:05:51,200 --> 00:05:52,000
Господин!
40
00:05:53,200 --> 00:05:54,800
Пришло послание от властителя Чжао
41
00:06:22,400 --> 00:06:24,600
Армия Цинь вошла в город Шандан царства Вэй
42
00:06:25,500 --> 00:06:26,700
Царство Чжао в большой опасности
43
00:06:28,100 --> 00:06:29,900
Властитель приказал всем силам Чжао...
44
00:06:30,100 --> 00:06:31,200
собраться у Чанпина...
45
00:06:31,300 --> 00:06:33,200
и биться насмерть против армии Цинь
46
00:06:35,100 --> 00:06:37,200
Это мой долг, ради которого я, твой муж,
47
00:06:39,300 --> 00:06:41,300
родился на свет
48
00:06:45,600 --> 00:06:47,600
Все мужчины старше 12 лет
49
00:06:48,000 --> 00:06:49,100
должны отправиться со мной
50
00:06:49,800 --> 00:06:52,000
Это последний шанс для Чжао победить армию Цинь
51
00:06:52,300 --> 00:06:53,400
Всех, кто ослушается приказа -
52
00:06:56,900 --> 00:06:57,900
казнить!
53
00:07:57,500 --> 00:07:58,800
Плохой знак,
54
00:07:59,300 --> 00:08:00,360

Альтернативные постеры

MediaInfo

Формат : AVI
Формат/Информация : Audio Video Interleave
Размер файла : 1,37 Гбайт
Продолжительность : 1 ч. 43 м.
Общий поток : 1888 Кбит/сек
Программа кодирования : VirtualDubMod 1.5.10.2 (build 2540/release)
Библиотека кодирования : VirtualDubMod build 2540/release
Видео
Идентификатор : 0
Формат : MPEG-4 Visual
Профиль формата : Advanced Simple@L5
Параметр BVOP формата : 3
Параметр QPel формата : Нет
Параметр GMC формата : Без точки перехода
Параметр матрицы формата : Default (H.263)
Режим смешивания : Сжатый битовый поток
Идентификатор кодека : XVID
Идентификатор кодека/Подсказка : XviD
Продолжительность : 1 ч. 43 м.
Битрейт : 1495 Кбит/сек
Ширина : 624 пикселя
Высота : 272 пикселя
Соотношение сторон : 2,25:1
Частота кадров : 25,000 кадров/сек
Цветовое пространство : YUV
Субдискретизация насыщенности : 4:2:0
Битовая глубина : 8 бит
Тип развёртки : Прогрессивная
Метод сжатия : С потерями
Бит/(Пиксели*Кадры) : 0.352
Размер потока : 1,08 Гбайт (79%)
Библиотека кодирования : XviD 1.2.1 (UTC 2008-12-04)
Аудио
Идентификатор : 1
Формат : AC-3
Формат/Информация : Audio Coding 3
Расширение режима : CM (complete main)
Параметр Endianness формата : Big
Идентификатор кодека : 2000
Продолжительность : 1 ч. 43 м.
Вид битрейта : Постоянный
Битрейт : 384 Кбит/сек
Каналы : 6 каналов
Расположение каналов : Front: L C R, Side: L R, LFE
Частота : 48,0 КГц
Битовая глубина : 16 бит
Метод сжатия : С потерями
Размер потока : 285 Мбайт (20%)
Выравнивание : Разделение по промежуткам
Продолжительность промежутка : 40 мс. (1,00 видеокадр)
Время предзагрузки промежутка : 500 мс.

Скриншот c названием фильма

Скачать

Скачать торрент! Пшеница / Mai Tian / Wheat (Хэ Пин / He Ping) [2009, Китай, Гонконг, драма, история, DVDRip] Sub Rus

Как скачивать? · Что такое торрент? · Рейтинг и ограничения

Сайт не распространяет и не хранит электронные версии произведений, а лишь предоставляет доступ к создаваемому пользователями каталогу ссылок на торрент-файлы, которые содержат только списки хеш-сумм

[Профиль] [ЛС]
Показать сообщения:    
Ответить на тему

Текущее время: Сегодня 12:05

Часовой пояс: GMT + 4



Вы не можете начинать темы
Вы не можете отвечать на сообщения
Вы не можете редактировать свои сообщения
Вы не можете удалять свои сообщения
Вы не можете голосовать в опросах
Вы не можете прикреплять файлы к сообщениям
Вы не можете скачивать файлы