Сезон убийц / Killing Season (Марк Стивен Джонсон / Mark Steven Johnson) [2013, Бельгия, США, триллер, драма, боевик, BDRip-AVC] VO (den904)

Ответить на тему
 
Автор Сообщение

user ®

Стаж: 7 лет 7 месяцев

Сообщений: 20008

Пост Пост: #1 от 09-Ноя-2013 04:00

[Цитировать]

Сезон убийц / Killing Season Страна: Бельгия, США
Жанр: триллер, драма, боевик
Год выпуска: 2013
Продолжительность: 01:30:44
Перевод: Одноголосый закадровый den904
Cубтитры: нет (русские скачать)
Оригинальная аудиодорожка: английская
Режиссер: Марк Стивен Джонсон / Mark Steven Johnson
В ролях: Джон Траволта, Роберт Де Ниро, Майло Вентимилья, Элизабет Олин, Диана Любенова, Стефан Штерев
Описание: История о ветеранах войны в Боснии — американце и сербе, которые, спустя много лет после событий в Европе, устраивают свою личную Третью мировую войну, пытаясь свести счеты.

Качество видео: BDRip [Рип с Killing Season 2013 1080p Blu-ray Remux AVC TrueHD 5.1 - KRaLiMaRKo]
Формат видео: AVI
Видео: х264, 1024х576 (16:9) 23.976 fps, 1712 Кbps, 0.121 bit/pixel
Аудио 1: 48 kHz, AC3 Dolby Digital, 3/2 (L,C,R,l,r) + LFE ch, ~384 kbps [rus]
Аудио 1: 48 kHz, AC3 Dolby Digital, 2 ch, ~192.00 kbps avg [eng]

x264@log

avs [info]: 1024x576p 1:1 @ 24000/1001 fps (cfr)
x264 [info]: using SAR=1/1
frame I:1016 Avg QP:15.07 size: 67866
x264 [info]: frame I:1016 Avg QP:15.07 size: 67866
x264 [info]: frame P:31470 Avg QP:19.03 size: 19605
x264 [info]: frame B:98049 Avg QP:20.78 size: 4885
x264 [info]: consecutive B-frames: 5.0% 5.8% 9.7% 25.1% 11.8% 23.0% 5.8% 5.4% 1.1% 1.2% 0.4% 1.4% 0.0% 0.6% 0.6% 1.3% 2.0%
x264 [info]: mb I I16..4: 14.1% 68.3% 17.6%
x264 [info]: mb P I16..4: 3.1% 12.3% 1.6% P16..4: 38.6% 18.6% 12.2% 0.0% 0.0% skip:13.5%
x264 [info]: mb B I16..4: 0.1% 0.4% 0.1% B16..8: 36.5% 5.1% 1.4% direct: 2.8% skip:53.7% L0:40.2% L1:52.8% BI: 7.0%
x264 [info]: 8x8 transform intra:71.2% inter:67.2%
x264 [info]: direct mvs spatial:98.7% temporal:1.3%
x264 [info]: coded y,uvDC,uvAC intra: 76.4% 66.3% 41.5% inter: 14.5% 11.4% 4.6%
x264 [info]: i16 v,h,dc,p: 37% 17% 9% 37%
x264 [info]: i8 v,h,dc,ddl,ddr,vr,hd,vl,hu: 8% 9% 6% 10% 15% 13% 14% 11% 14%
x264 [info]: i4 v,h,dc,ddl,ddr,vr,hd,vl,hu: 8% 8% 4% 11% 16% 13% 14% 11% 15%
x264 [info]: Weighted P-Frames: Y:9.7% UV:5.8%
x264 [info]: ref P L0: 56.5% 11.1% 13.5% 4.8% 3.4% 2.8% 2.1% 1.2% 1.0% 0.9% 0.7% 0.7% 0.5% 0.5% 0.2% 0.0%
x264 [info]: ref B L0: 82.2% 9.0% 3.8% 1.6% 1.1% 0.8% 0.5% 0.3% 0.3% 0.2% 0.2% 0.1% 0.1%
x264 [info]: ref B L1: 93.0% 7.0%
x264 [info]: kb/s:1680.98
encoded 2535 frames

MediaInfo

Complete name : Killing Season.2013.x264.BDRip-ed_rez.mkv
Format : Matroska
Format version : Version 2
File size : 1.45 GiB
Duration : 1h 30mn
Overall bit rate : 2 290 Kbps
Movie name : Killing Season (2013) encoded by ed_rez
Encoded date : UTC 2013-11-08 21:11:32
Writing application : mkvmerge v6.4.1 ('Omega Point') built on Sep 16 2013 22:05:10
Writing library : libebml v1.3.0 + libmatroska v1.4.1
Video
ID : 1
Format : AVC
Format/Info : Advanced Video Codec
Format profile : High@L4.1
Format settings, CABAC : Yes
Format settings, ReFrames : 13 frames
Codec ID : V_MPEG4/ISO/AVC
Duration : 1h 30mn
Bit rate : 1 712 Kbps
Width : 1 024 pixels
Height : 576 pixels
Display aspect ratio : 16:9
Frame rate mode : Constant
Frame rate : 23.976 fps
Color space : YUV
Chroma subsampling : 4:2:0
Bit depth : 8 bits
Scan type : Progressive
Bits/(Pixel*Frame) : 0.121
Stream size : 1.06 GiB (73%)
Title : Killing Season (2013)
Writing library : x264 core 133 r2334 a3ac64b
Encoding settings : cabac=1 / ref=13 / deblock=1:-2:-1 / analyse=0x3:0x113 / me=umh / subme=10 / psy=1 / psy_rd=1.10:0.10 / mixed_ref=1 / me_range=32 / chroma_me=1 / trellis=2 / 8x8dct=1 / cqm=0 / deadzone=21,11 / fast_pskip=1 / chroma_qp_offset=-3 / threads=12 / lookahead_threads=3 / sliced_threads=0 / nr=0 / decimate=0 / interlaced=0 / bluray_compat=0 / constrained_intra=0 / bframes=13 / b_pyramid=2 / b_adapt=2 / b_bias=0 / direct=3 / weightb=1 / open_gop=0 / weightp=2 / keyint=250 / keyint_min=23 / scenecut=40 / intra_refresh=0 / rc_lookahead=80 / rc=2pass / mbtree=0 / bitrate=1712 / ratetol=1.0 / qcomp=0.70 / qpmin=0 / qpmax=69 / qpstep=4 / cplxblur=20.0 / qblur=0.5 / vbv_maxrate=22000 / vbv_bufsize=24000 / nal_hrd=none / ip_ratio=1.40 / pb_ratio=1.30 / aq=2:0.90
Default : Yes
Forced : No
Color primaries : BT.709
Transfer characteristics : BT.709
Matrix coefficients : BT.709
Audio #1
ID : 2
Format : AC-3
Format/Info : Audio Coding 3
Mode extension : CM (complete main)
Format settings, Endianness : Big
Codec ID : A_AC3
Duration : 1h 30mn
Bit rate mode : Constant
Bit rate : 384 Kbps
Channel count : 6 channels
Channel positions : Front: L C R, Side: L R, LFE
Sampling rate : 48.0 KHz
Bit depth : 16 bits
Compression mode : Lossy
Stream size : 249 MiB (17%)
Title : 48 kHz, AC3 Dolby Digital, 3/2 (L,C,R,l,r) + LFE ch, ~384 kbps
Language : Russian
Default : Yes
Forced : No
Audio #2
ID : 3
Format : AC-3
Format/Info : Audio Coding 3
Mode extension : CM (complete main)
Format settings, Endianness : Big
Codec ID : A_AC3
Duration : 1h 30mn
Bit rate mode : Constant
Bit rate : 192 Kbps
Channel count : 2 channels
Channel positions : Front: L R
Sampling rate : 48.0 KHz
Bit depth : 16 bits
Compression mode : Lossy
Stream size : 125 MiB (8%)
Title : 48 kHz, AC3 Dolby Digital, 2 ch, ~192.00 kbps avg
Language : English
Default : No
Forced : No

Скриншоты

Скачать

Скачать торрент!

Как скачивать? · Что такое торрент? · Рейтинг и ограничения

Сайт не распространяет и не хранит электронные версии произведений, а лишь предоставляет доступ к создаваемому пользователями каталогу ссылок на торрент-файлы, которые содержат только списки хеш-сумм

[Профиль] [ЛС]
Показать сообщения:    
Ответить на тему

Текущее время: Сегодня 14:37

Часовой пояс: GMT + 4



Вы не можете начинать темы
Вы не можете отвечать на сообщения
Вы не можете редактировать свои сообщения
Вы не можете удалять свои сообщения
Вы не можете голосовать в опросах
Вы не можете прикреплять файлы к сообщениям
Вы не можете скачивать файлы