Русалочка 2: Возвращение в море / The Little Mermaid II: Return to the Sea (Джим Кэммерад / Jim Kammerud, Брайан Смит / Brian Smith) [2000, мультфильм, мюзикл, фэнтези, семейный, BDRip-AVC] Dub + AVO (Визгунов) + Original (Eng) + Sub (Rus, Eng)

Ответить на тему
 
Автор Сообщение

user ®

Стаж: 12 лет

Сообщений: 15145

Пост Пост: #1 от 08-Ноя-2013 18:30

[Цитировать]

Русалочка 2Возвращение в море Год выпуска: 2000
Страна: США, Австралия, Канада
Жанр: мультфильм, мюзикл, фэнтези, семейный
Продолжительность: 01:15:12
Перевод 1: профессиональный полное дублирование Blu-ray CEE
Перевод 2: авторский одноголосый, закадровый С. Визгунов
Оригинал: английский
Cубтитры: русские, английские softsub (SRT)-Режиссёр: Джим Кэммерад / Брайан Смит-Роли озвучивали:
Тара Стронг (Ирина Обрезкова), Кэм Кларк (Валерий Смекалов), Джоди Бенсон, Сэмюэл Э. Райт, Пэт Кэрролл, Бадди Хэкетт, Кеннет Марс, Макс Казелла, Стефен Ферст, Роб Полсен, Клэнси Браун, Рене Обержонуа, Кэй Е. Кьютер, Эди МакКлёрг, Фрэнк Уэлкер, Джастин Шульте, Блейк МакИвер Юинг, Эмили Харт, Маркус Тодзи-Описание:
Главная героиня новой ленты Мелоди — дочь русалочки Ариэль и принца Эрика. Как ни пытались родители уберечь дочь от неприятностей, которые таит в себе море и его обитатели, у них ничего не вышло. Мелоди сбежала в море и встретилась с Морганой, сестрой злой морской ведьмы Урсулы. Но маленькая Мелоди любила Атлантику всем сердцем, и ее любовь помогла ей преодолеть опасности и обрести новых друзей…-
  • Мультфильм студии Уолта Диснея 2000 года; продолжение мультфильма «Русалочка».
  • Через 13 лет после выхода на экраны мультфильм был официально издан в России. 22 октября 2013 года он вышел на DVD и Blu-ray от издательства «Уолт Дисней Компани СНГ» в полном дубляже (включая вокальные партии). До этого фильм распространялся только на «пиратских» видеоносителях в авторских переводах Юрия Живова и Сергея Визгунова.
  • Сёстры-ведьмы очень отличаются от друг друга: Урсула — толстая ведьма с короткими волосами и фиолетовым цветом кожи, опытная в волшебстве. Моргана же — худая колдунья с длинными волосами и зелёным цветом кожи, неопытная в волшебстве. Если Урсула изображена полуосьминогом, то Моргана, наоборот, — полукальмаром.
  • Аттина, Андрина, Аквата и Аделла появляются на крестинах Мэлоди, а Ариста и Алана — нет.
  • В первом мультфильме царь Тритон в гневе разрушал всю коллекцию Ариэль. Во втором же Ариэль возвращается в невредимую пещеру с целой коллекцией.
  • Во время заключительных титров фильма звучит новая версия песни «Весь этот мир» (англ. Part of Your World) из первой части. Её исполняет американская певица Шели Райт. Вариант, который использовался в международных дубляжах фильма, исполнила Энн Мэри Боскович. В русском дубляже звучит инструментальная версия.

-
-IMDB: 5.3/10 (7 018 votes)
Кинопоиск: 6.606 (1720)- -Сэмпл--Качество видео: BDRip-AVC исходник Blu-ray disc 1080p/HDClub
Видео кодек: H.264
Аудио кодек: AC3
Видео: 1024 x 576 (1.77 :1), 23.976 fps, 1940 Кбит/сек, 0.14 bit/pixel
Аудио 1: 48 kHz, AC3 Dolby Digital, 2/0 (L,R) ch, ~192.00 kbps avg дубляж
Аудио 2: 48 kHz, AC3 Dolby Digital, 2/0 (L,R) ch, ~192.00 kbps avg С. Визгунов
Аудио 3: 48 kHz, AC3 Dolby Digital, 3/2 (L,C,R,l,r) + LFE ch, ~448.00 kbps avg оригинал

Скриншоты



MediaInfo | x264

x264

x264 [info]: frame I:987 Avg QP:14.04 size: 68611
x264 [info]: frame P:27660 Avg QP:18.00 size: 19907
x264 [info]: frame B:79545 Avg QP:19.16 size: 5985
x264 [info]: consecutive B-frames: 2.6% 3.7% 12.6% 48.0% 19.0% 6.6% 2.6% 1.4% 0.9% 0.8% 0.8% 0.9%
x264 [info]: mb I I16..4: 10.1% 55.6% 34.4%
x264 [info]: mb P I16..4: 3.8% 5.9% 3.9% P16..4: 32.1% 28.9% 9.3% 2.6% 0.5% skip:13.1%
x264 [info]: mb B I16..4: 1.4% 0.8% 0.4% B16..8: 28.4% 11.4% 2.4% direct: 2.8% skip:52.4% L0:46.5% L1:46.8% BI: 6.7%
x264 [info]: 8x8 transform intra:41.8% inter:33.5%
x264 [info]: direct mvs spatial:91.3% temporal:8.7%
x264 [info]: coded y,uvDC,uvAC intra: 42.7% 76.5% 61.6% inter: 8.2% 14.3% 9.3%
x264 [info]: i16 v,h,dc,p: 62% 10% 5% 23%
x264 [info]: i8 v,h,dc,ddl,ddr,vr,hd,vl,hu: 8% 9% 30% 7% 9% 8% 10% 8% 12%
x264 [info]: i4 v,h,dc,ddl,ddr,vr,hd,vl,hu: 13% 12% 18% 9% 11% 9% 10% 8% 11%
x264 [info]: i8c dc,h,v,p: 43% 27% 16% 14%
x264 [info]: Weighted P-Frames: Y:3.5% UV:2.8%
x264 [info]: ref P L0: 50.6% 7.4% 15.5% 7.2% 5.4% 4.3% 3.9% 2.2% 1.8% 1.5% 0.3% 0.0%
x264 [info]: ref B L0: 63.2% 15.7% 8.4% 4.2% 3.0% 2.3% 1.8% 0.8% 0.4%
x264 [info]: ref B L1: 91.0% 9.0%
General
Unique ID : 185731123981450205622125678645549212211 (0x8BBA836977B24F3393AD6AC8B4E82233)
Complete name : D:\Rusalochka.2.Vozvraschenie.v.more.2000.BDRip-AVC.mkv
Format : Matroska
Format version : Version 2
File size : 1.46 GiB
Duration : 1h 15mn
Overall bit rate mode : Variable
Overall bit rate : 2 778 Kbps
Encoded date : UTC 2013-11-05 09:49:56
Writing application : mkvmerge v5.8.0 ('No Sleep / Pillow') built on Sep 2 2012 15:37:04
Writing library : libebml v1.2.3 + libmatroska v1.3.0
Video
ID : 1
Format : AVC
Format/Info : Advanced Video Codec
Format profile : High@L4.1
Format settings, CABAC : Yes
Format settings, ReFrames : 10 frames
Codec ID : V_MPEG4/ISO/AVC
Duration : 1h 15mn
Bit rate mode : Variable
Bit rate : 1 940 Kbps
Maximum bit rate : 40.0 Mbps
Width : 1 024 pixels
Height : 576 pixels
Display aspect ratio : 16:9
Frame rate : 23.976 fps
Color space : YUV
Chroma subsampling : 4:2:0
Bit depth : 8 bits
Scan type : Progressive
Bits/(Pixel*Frame) : 0.137
Stream size : 1 017 MiB (68%)
Writing library : x264 core 133 r2334 a3ac64b
Encoding settings : cabac=1 / ref=10 / deblock=1:-2:-1 / analyse=0x3:0x133 / me=umh / subme=11 / psy=1 / psy_rd=0.60:0.00 / mixed_ref=1 / me_range=32 / chroma_me=1 / trellis=2 / 8x8dct=1 / cqm=0 / deadzone=21,11 / fast_pskip=0 / chroma_qp_offset=-2 / threads=6 / lookahead_threads=1 / sliced_threads=0 / nr=0 / decimate=0 / interlaced=0 / bluray_compat=0 / constrained_intra=0 / bframes=11 / b_pyramid=2 / b_adapt=2 / b_bias=0 / direct=3 / weightb=1 / open_gop=0 / weightp=2 / keyint=240 / keyint_min=24 / scenecut=40 / intra_refresh=0 / rc_lookahead=60 / rc=2pass / mbtree=0 / bitrate=1940 / ratetol=1.0 / qcomp=0.70 / qpmin=0 / qpmax=69 / qpstep=4 / cplxblur=20.0 / qblur=0.5 / vbv_maxrate=50000 / vbv_bufsize=62500 / nal_hrd=none / ip_ratio=1.40 / pb_ratio=1.20 / aq=2:0.90
Default : Yes
Forced : No
Audio #1
ID : 2
Format : AC-3
Format/Info : Audio Coding 3
Mode extension : CM (complete main)
Codec ID : A_AC3
Duration : 1h 15mn
Bit rate mode : Constant
Bit rate : 192 Kbps
Channel(s) : 2 channels
Channel positions : Front: L R
Sampling rate : 48.0 KHz
Bit depth : 16 bits
Compression mode : Lossy
Stream size : 103 MiB (7%)
Title : Dub
Language : Russian
Default : Yes
Forced : No
Audio #2
ID : 3
Format : AC-3
Format/Info : Audio Coding 3
Mode extension : CM (complete main)
Codec ID : A_AC3
Duration : 1h 15mn
Bit rate mode : Constant
Bit rate : 192 Kbps
Channel(s) : 2 channels
Channel positions : Front: L R
Sampling rate : 48.0 KHz
Bit depth : 16 bits
Compression mode : Lossy
Stream size : 103 MiB (7%)
Title : Vizgunov
Language : Russian
Default : No
Forced : No
Audio #3
ID : 4
Format : AC-3
Format/Info : Audio Coding 3
Mode extension : CM (complete main)
Codec ID : A_AC3
Duration : 1h 15mn
Bit rate mode : Constant
Bit rate : 448 Kbps
Channel(s) : 6 channels
Channel positions : Front: L C R, Side: L R, LFE
Sampling rate : 48.0 KHz
Bit depth : 16 bits
Compression mode : Lossy
Stream size : 241 MiB (16%)
Title : Original
Language : English
Default : No
Forced : No
Text #1
ID : 5
Format : UTF-8
Codec ID : S_TEXT/UTF8
Codec ID/Info : UTF-8 Plain Text
Title : Full
Language : Russian
Default : No
Forced : No
Text #2
ID : 6
Format : UTF-8
Codec ID : S_TEXT/UTF8
Codec ID/Info : UTF-8 Plain Text
Title : Full
Language : English
Default : No
Forced : No
Menu
00:00:00.000 : en:Chapter 01
00:04:00.323 : en:Chapter 02
00:04:33.273 : en:Chapter 03
00:09:56.345 : en:Chapter 04
00:16:45.421 : en:Chapter 05
00:20:52.209 : en:Chapter 06
00:23:55.225 : en:Chapter 07
00:25:54.427 : en:Chapter 08
00:28:19.698 : en:Chapter 09
00:32:50.510 : en:Chapter 10
00:35:40.680 : en:Chapter 11
00:37:27.245 : en:Chapter 12
00:44:28.123 : en:Chapter 13
00:46:24.907 : en:Chapter 14
00:52:59.426 : en:Chapter 15
01:00:07.562 : en:Chapter 16
01:02:18.192 : en:Chapter 17
01:05:49.695 : en:Chapter 18
01:08:58.717 : en:Chapter 19
Скачать

Скачать торрент! Русалочка 2: Возвращение в море / The Little Mermaid II: Return to the Sea (Джим Кэммерад / Jim Kammerud, Брайан Смит / Brian Smith) [2000, мультфильм, мюзикл, фэнтези, семейный, BDRip-AVC] Dub + AVO (Визгунов) + Original (Eng) + Sub (Rus, Eng)

Как скачивать? · Что такое торрент? · Рейтинг и ограничения

Сайт не распространяет и не хранит электронные версии произведений, а лишь предоставляет доступ к создаваемому пользователями каталогу ссылок на торрент-файлы, которые содержат только списки хеш-сумм

[Профиль] [ЛС]
Показать сообщения:    
Ответить на тему

Текущее время: Сегодня 20:46

Часовой пояс: GMT + 4



Вы не можете начинать темы
Вы не можете отвечать на сообщения
Вы не можете редактировать свои сообщения
Вы не можете удалять свои сообщения
Вы не можете голосовать в опросах
Вы не можете прикреплять файлы к сообщениям
Вы не можете скачивать файлы