Иллю3ия oбмаNa / N0w Y0u See Мe (Луи Лeтерьe / Lоuis Lеterriеr) [2013, Франция, США, триллер, криминал, детектив, BDRip 720p] [Extended Cut] Dub + 3xAVO + Original eng + Sub rus, eng

Ответить на тему
 
Автор Сообщение

user ®

Стаж: 7 лет 7 месяцев

Сообщений: 20008

Пост Пост: #1 от 08-Ноя-2013 18:30

[Цитировать]

Иллюзия обмана / Now You See Me
Страна: Франция, США
Жанр: триллер, криминал, детектив
Год выпуска: 2013
Продолжительность: 02:04:48
Перевод#1: Профессиональный (дублированный), со вставками Сербина
Перевод#2: Авторский (одноголосый закадровый), Ю. Сербин
Перевод#2: Авторский (одноголосый закадровый), А. Гаврилов
Перевод#2: Авторский (одноголосый закадровый), Л. Володарский
Cубтитры: русские, английские
Оригинальная аудиодорожка: английский
Режиссер: Луи Летерье / Louis Leterrier
В ролях: Марк Руффало, Джесси Айзенберг, Вуди Харрельсон, Айла Фишер, Дэйв Франко, Мелани Лоран, Морган Фриман, Майкл Кейн, Майкл Келли, Коммон
Описание: Команда иллюзионистов проворачивает дерзкие ограбления прямо во время своих шоу, играя в кошки-мышки с агентами ФБР

Тип релиза: BDRip 720p (от HiDt) | sample
Контейнер: MKV
Видео кодек: x264
Видео: AVC 1280x534 (2.40:1), 23.976 fps, ~6920 Kbps, 0.42 bit/pixel
Аудио #1: Russian AC3 6ch 48kHz 640Kbps | Dub, со вставками Сербина
Аудио #2: Russian AC3 6ch 48kHz 640Kbps | AVO Сербин
Аудио #3: Russian AC3 6ch 48kHz 640Kbps | AVO Гаврилов
Аудио #4: Russian AC3 6ch 48kHz 640Kbps | AVO Володарский
Аудио #5: English AC3 6ch 48kHz 640Kbps | Original
Формат субтитров: softsub (SRT)
Главы: есть

Дороги

За дубляж со вставками спасибо FILVOVAN
За Сербина и Володарского спасибо меценатам с HDCLUB и e180, за Гаврилова - пользователям с HDTRACKER

MediaInfo

General
General
Complete name : E:\...3\Now.You.See.Me.2013.Extended.720p.BluRay.x264.DD5.1.4xRus.Eng-HiDt.mkv
Format : Matroska
Format version : Version 4 / Version 2
File size : 8.96 GiB
Duration : 2h 4mn
Overall bit rate : 10.3 Mbps
Movie name : Now.You.See.Me.2013.Extended.720p.BluRay.x264.DD5.1.4xRus.Eng-HiDt
Encoded date : UTC 2013-11-08 00:02:51
Writing application : mkvmerge v6.2.0 ('Promised Land') built on Apr 28 2013 12:22:01
Writing library : libebml v1.3.0 + libmatroska v1.4.0
Video
ID : 1
Format : AVC
Format/Info : Advanced Video Codec
Format profile : High@L4.1
Format settings, CABAC : Yes
Format settings, ReFrames : 12 frames
Codec ID : V_MPEG4/ISO/AVC
Bit rate : 6 877 Kbps
Width : 1 280 pixels
Height : 534 pixels
Display aspect ratio : 2.40:1
Frame rate mode : Variable
Original frame rate : 23.976 fps
Color space : YUV
Chroma subsampling : 4:2:0
Bit depth : 8 bits
Scan type : Progressive
Title : HiDt
Writing library : x264 core 133 r2334 a3ac64b
Encoding settings : cabac=1 / ref=12 / deblock=1:-3:-3 / analyse=0x3:0x113 / me=tesa / subme=11 / psy=1 / psy_rd=1.07:0.00 / mixed_ref=1 / me_range=32 / chroma_me=1 / trellis=2 / 8x8dct=1 / cqm=0 / deadzone=21,11 / fast_pskip=0 / chroma_qp_offset=-2 / threads=12 / lookahead_threads=2 / sliced_threads=0 / nr=0 / decimate=1 / interlaced=0 / bluray_compat=0 / constrained_intra=0 / bframes=8 / b_pyramid=2 / b_adapt=2 / b_bias=0 / direct=3 / weightb=1 / open_gop=0 / weightp=2 / keyint=250 / keyint_min=25 / scenecut=40 / intra_refresh=0 / rc=crf / mbtree=0 / crf=16.7 / qcomp=0.70 / qpmin=0 / qpmax=69 / qpstep=4 / ip_ratio=1.40 / pb_ratio=1.30 / aq=1:0.90
Language : English
Default : Yes
Forced : No
Matrix coefficients : BT.709
Audio #1
ID : 2
Format : AC-3
Format/Info : Audio Coding 3
Mode extension : CM (complete main)
Format settings, Endianness : Big
Codec ID : A_AC3
Duration : 2h 4mn
Bit rate mode : Constant
Bit rate : 640 Kbps
Channel(s) : 6 channels
Channel positions : Front: L C R, Side: L R, LFE
Sampling rate : 48.0 KHz
Bit depth : 16 bits
Compression mode : Lossy
Stream size : 571 MiB (6%)
Title : Dub
Language : Russian
Default : Yes
Forced : No
Audio #2
ID : 3
Format : AC-3
Format/Info : Audio Coding 3
Mode extension : CM (complete main)
Format settings, Endianness : Big
Codec ID : A_AC3
Duration : 2h 4mn
Bit rate mode : Constant
Bit rate : 640 Kbps
Channel(s) : 6 channels
Channel positions : Front: L C R, Side: L R, LFE
Sampling rate : 48.0 KHz
Bit depth : 16 bits
Compression mode : Lossy
Stream size : 571 MiB (6%)
Title : AVO Serbin
Language : Russian
Default : No
Forced : No
Audio #3
ID : 4
Format : AC-3
Format/Info : Audio Coding 3
Mode extension : CM (complete main)
Format settings, Endianness : Big
Codec ID : A_AC3
Duration : 2h 4mn
Bit rate mode : Constant
Bit rate : 640 Kbps
Channel(s) : 6 channels
Channel positions : Front: L C R, Side: L R, LFE
Sampling rate : 48.0 KHz
Bit depth : 16 bits
Compression mode : Lossy
Stream size : 571 MiB (6%)
Title : AVO Gavrilov
Language : Russian
Default : No
Forced : No
Audio #4
ID : 5
Format : AC-3
Format/Info : Audio Coding 3
Mode extension : CM (complete main)
Format settings, Endianness : Big
Codec ID : A_AC3
Duration : 2h 4mn
Bit rate mode : Constant
Bit rate : 640 Kbps
Channel(s) : 6 channels
Channel positions : Front: L C R, Side: L R, LFE
Sampling rate : 48.0 KHz
Bit depth : 16 bits
Compression mode : Lossy
Stream size : 571 MiB (6%)
Title : AVO Volodarsky
Language : Russian
Default : No
Forced : No
Audio #5
ID : 6
Format : AC-3
Format/Info : Audio Coding 3
Mode extension : CM (complete main)
Format settings, Endianness : Big
Codec ID : A_AC3
Duration : 2h 4mn
Bit rate mode : Constant
Bit rate : 640 Kbps
Channel(s) : 6 channels
Channel positions : Front: L C R, Side: L R, LFE
Sampling rate : 48.0 KHz
Bit depth : 16 bits
Compression mode : Lossy
Stream size : 571 MiB (6%)
Title : Original
Language : English
Default : No
Forced : No
Text #1
ID : 7
Format : UTF-8
Codec ID : S_TEXT/UTF8
Codec ID/Info : UTF-8 Plain Text
Title : notabenoid
Language : Russian
Default : No
Forced : No
Text #2
ID : 8
Format : UTF-8
Codec ID : S_TEXT/UTF8
Codec ID/Info : UTF-8 Plain Text
Language : English
Default : No
Forced : No
Menu
00:00:00.000 : en:00:00:00.000
00:08:26.548 : en:00:08:26.548
00:14:41.923 : en:00:14:41.923
00:21:25.868 : en:00:21:25.868
00:32:02.003 : en:00:32:02.003
00:39:29.158 : en:00:39:29.158
00:47:07.199 : en:00:47:07.199
00:56:43.441 : en:00:56:43.441
01:04:35.371 : en:01:04:35.371
01:10:23.135 : en:01:10:23.135
01:20:04.549 : en:01:20:04.549
01:29:01.002 : en:01:29:01.002
01:35:22.883 : en:01:35:22.883
01:44:06.281 : en:01:44:06.281
01:45:47.507 : en:01:45:47.507
01:54:24.607 : en:01:54:24.607

Скриншоты

source vs HiDt



*Перезалитъ 08.11, пофиксены английские субтитры
Скачать

Скачать торрент!

Как скачивать? · Что такое торрент? · Рейтинг и ограничения

Сайт не распространяет и не хранит электронные версии произведений, а лишь предоставляет доступ к создаваемому пользователями каталогу ссылок на торрент-файлы, которые содержат только списки хеш-сумм

[Профиль] [ЛС]
Показать сообщения:    
Ответить на тему

Текущее время: Сегодня 15:37

Часовой пояс: GMT + 4



Вы не можете начинать темы
Вы не можете отвечать на сообщения
Вы не можете редактировать свои сообщения
Вы не можете удалять свои сообщения
Вы не можете голосовать в опросах
Вы не можете прикреплять файлы к сообщениям
Вы не можете скачивать файлы