Росомаха: Бессмертный / The Wolverine (Джеймс Мэнголд / James Mangold) [2013, Австралия, США, фантастика, фэнтези, боевик, приключения, BDRip 720p] [Расширенная версия / Extended Cut] Dub (line) + Sub Eng + Original Eng

Ответить на тему
 
Автор Сообщение

user ®

Стаж: 7 лет 7 месяцев

Сообщений: 20008

Пост Пост: #1 от 08-Ноя-2013 18:30

[Цитировать]

Росомаха: Бессмертный
The Wolverine
[Расширенная версия / Extended Cut]
--Страна: Австралия, США
Жанр: фантастика, фэнтези, боевик, приключения
Год выпуска: 2013
Продолжительность: 02:18:14--Перевод: Профессиональный (дублированный) Чистый звук
Cубтитры: английские
Оригинальная аудиодорожка: английская--Режиссер: Джеймс Мэнголд / James Mangold--В ролях: Хью Джекман, Светлана Ходченкова, Тао Окамото, Рила Фукусима, Уилл Юн Ли, Харукико Яманоути, Хироюки Санада, Брайан Ти, Кен Ямамура, Фамке Янссен--Описание: Новая глава приключений Росомахи развернётся в Японии, где Логану предстоит выяснить, что острее — когти Росомахи или меч Серебряного Самурая.
--ВНИМАНИЕ! В расширенных местах (~12 мин.) отсутствует перевод!--Сэмпл
Тип релиза: BDRip 720p (сохранены оригинальные чаптеры)
Контейнер: MKV
Видео: MPEG4 Video (H264) 1280x532 (243:101) 23.976fps 5003Kbps
Аудио: Dolby AC3 48000Hz stereo 192kbps (Ru)
Аудио 2: DTS 48000Hz 6ch 1509Kbps (En)--

MediaInfo

General
Unique ID                      : 178359975003426618205218925380949681983 (0x862EE1B561E52268B77D7C763726A73F)
Complete name                  : D:\TORRENTS\The.Wolverine.2013.D.EXTENDED.720p.BDRip.720p.mkv
Format                         : Matroska
Format version                 : Version 4 / Version 2
File size                      : 6.60 GiB
Duration                       : 2h 18mn
Overall bit rate               : 6 840 Kbps
Encoded date                   : UTC 2013-11-08 05:34:54
Writing application            : mkvmerge v6.1.0 ('Old Devil') built on Mar  4 2013 09:10:42
Writing library                : libebml v1.3.0 + libmatroska v1.4.0
Video
ID                             : 1
Format                         : AVC
Format/Info                    : Advanced Video Codec
Format profile                 : High@L4.1
Format settings, CABAC         : Yes
Format settings, ReFrames      : 5 frames
Codec ID                       : V_MPEG4/ISO/AVC
Duration                       : 2h 18mn
Bit rate                       : 5 003 Kbps
Width                          : 1 280 pixels
Height                         : 532 pixels
Display aspect ratio           : 2.40:1
Frame rate mode                : Constant
Frame rate                     : 23.976 fps
Color space                    : YUV
Chroma subsampling             : 4:2:0
Bit depth                      : 8 bits
Scan type                      : Progressive
Bits/(Pixel*Frame)             : 0.306
Stream size                    : 4.83 GiB (73%)
Language                       : English
Default                        : Yes
Forced                         : No
Audio #1
ID                             : 2
Format                         : AC-3
Format/Info                    : Audio Coding 3
Mode extension                 : CM (complete main)
Format settings, Endianness    : Big
Codec ID                       : A_AC3
Duration                       : 2h 18mn
Bit rate mode                  : Constant
Bit rate                       : 192 Kbps
Channel count                  : 2 channels
Channel positions              : Front: L R
Sampling rate                  : 48.0 KHz
Bit depth                      : 16 bits
Compression mode               : Lossy
Stream size                    : 190 MiB (3%)
Language                       : Russian
Default                        : Yes
Forced                         : No
Audio #2
ID                             : 3
Format                         : DTS
Format/Info                    : Digital Theater Systems
Format profile                 : ES
Mode                           : 16
Format settings, Endianness    : Big
Codec ID                       : A_DTS
Duration                       : 2h 18mn
Bit rate mode                  : Constant
Bit rate                       : 1 509 Kbps
Channel count                  : 6 channels
Channel positions              : Front: L C R, Side: L R, LFE
Sampling rate                  : 48.0 KHz
Bit depth                      : 24 bits
Compression mode               : Lossy
Stream size                    : 1.46 GiB (22%)
Language                       : English
Default                        : No
Forced                         : No
Text #1
ID                             : 4
Format                         : VobSub
Muxing mode                    : zlib
Codec ID                       : S_VOBSUB
Codec ID/Info                  : The same subtitle format used on DVDs
Language                       : English
Default                        : No
Forced                         : No
Text #2
ID                             : 5
Format                         : VobSub
Muxing mode                    : zlib
Codec ID                       : S_VOBSUB
Codec ID/Info                  : The same subtitle format used on DVDs
Language                       : English
Default                        : No
Forced                         : No
Menu
00:00:00.000                   : en:00:00:00.000
00:05:03.720                   : en:00:05:03.720
00:07:39.793                   : en:00:07:39.793
00:08:40.562                   : en:00:08:40.562
00:10:24.374                   : en:00:10:24.374
00:13:55.668                   : en:00:13:55.668
00:16:48.174                   : en:00:16:48.174
00:20:32.648                   : en:00:20:32.648
00:23:36.498                   : en:00:23:36.498
00:29:13.585                   : en:00:29:13.585
00:33:42.771                   : en:00:33:42.771
00:35:14.779                   : en:00:35:14.779
00:38:36.522                   : en:00:38:36.522
00:43:04.957                   : en:00:43:04.957
00:47:55.080                   : en:00:47:55.080
00:49:31.844                   : en:00:49:31.844
00:52:23.098                   : en:00:52:23.098
00:59:32.318                   : en:00:59:32.318
01:01:31.354                   : en:01:01:31.354
01:07:00.516                   : en:01:07:00.516
01:13:10.261                   : en:01:13:10.261
01:18:52.227                   : en:01:18:52.227
01:23:40.473                   : en:01:23:40.473
01:26:47.160                   : en:01:26:47.160
01:29:50.927                   : en:01:29:50.927
01:35:19.380                   : en:01:35:19.380
01:38:28.194                   : en:01:38:28.194
01:41:43.639                   : en:01:41:43.639
01:48:33.006                   : en:01:48:33.006
01:52:05.969                   : en:01:52:05.969
01:54:56.264                   : en:01:54:56.264
01:58:03.493                   : en:01:58:03.493
02:03:01.999                   : en:02:03:01.999
02:04:57.406                   : en:02:04:57.406
02:07:46.700                   : en:02:07:46.700
02:09:17.374                   : en:02:09:17.374

Скриншоты

-

-
-
Скачать

Скачать торрент!

Как скачивать? · Что такое торрент? · Рейтинг и ограничения

Сайт не распространяет и не хранит электронные версии произведений, а лишь предоставляет доступ к создаваемому пользователями каталогу ссылок на торрент-файлы, которые содержат только списки хеш-сумм

[Профиль] [ЛС]
Показать сообщения:    
Ответить на тему

Текущее время: Сегодня 02:08

Часовой пояс: GMT + 4



Вы не можете начинать темы
Вы не можете отвечать на сообщения
Вы не можете редактировать свои сообщения
Вы не можете удалять свои сообщения
Вы не можете голосовать в опросах
Вы не можете прикреплять файлы к сообщениям
Вы не можете скачивать файлы