Акция (Владимир Шамшурин) [1987, Военный, DVB]

Ответить на тему
 
Автор Сообщение

user ®

Стаж: 7 лет 7 месяцев

Сообщений: 20008

Пост Пост: #1 от 08-Ноя-2013 18:30

[Цитировать]

Акция
Жанр: Военный
Год выпуска: 1987
Продолжительность: 01:26:20
Режиссёр: Владимир Шамшурин
В ролях: Борис Галкин, Георгий Юматов, Олег Стриженов, Екатерина Васильева, Александр Новиков, Артем Каминский, Борис Никифоров, Сергей Десницкий, Виталий Зикора, Александр Январев
Описание: В 1943 году, когда на фронте было небольшое затишье, у Советских разведчиков была своя работа. Группе русских солдат поручает важное задание в тылу врага на оккупированной Украине. Русским разведчикам предстоит найти и доставить архив важных документов учебного центра немецких диверсантов. Опытные бойцы проявляют мужество и смекалку во время выполнения задания.
Качество видео: DVB
Формат видео: MPEG-PS
Видео: MPEG2, 704х576 (4:3), 4840 Kbps, 25 fps, Bits/(Pixel*Frame) : 0.477
Аудио: MP2, 192 Kbps, 2 ch, 48 KHz

MediaInfo

G:\ИСТОРИЧЕСКИЕ\Акция.mpg
General
Complete name : G:\ИСТОРИЧЕСКИЕ\Акция.mpg
Format : MPEG-PS
File size : 3.07 GiB
Duration : 1h 26mn
Overall bit rate mode : Variable
Overall bit rate : 5 094 Kbps
Writing library : (c) 1998-2011 Womble Multimedia, Inc. / MPEG Video Wizard DVD 5.0.1.100 (03/2011) / May 27 2011
Video #224
ID : 224 (0xE0)
Format : MPEG Video
Format version : Version 2
Format profile : Main@Main
Format settings, BVOP : Yes
Format settings, Matrix : Custom
Duration : 1h 26mn
Bit rate mode : Variable
Bit rate : 4 840 Kbps
Width : 704 pixels
Height : 576 pixels
Display aspect ratio : 4:3
Frame rate : 25.000 fps
Standard : PAL
Color space : YUV
Chroma subsampling : 4:2:0
Bit depth : 8 bits
Scan type : Interlaced
Scan order : Top Field First
Compression mode : Lossy
Bits/(Pixel*Frame) : 0.477
Stream size : 2.90 GiB (94%)
Writing library : (c) 1998-2011 Womble Multimedia, Inc. / MPEG Video Wizard DVD 5.0.1.100 (03/2011) / May 27 2011
Audio #192
ID : 192 (0xC0)
Format : MPEG Audio
Format version : Version 1
Format profile : Layer 2
Duration : 1h 26mn
Bit rate mode : Constant
Bit rate : 192 Kbps
Channel(s) : 2 channels
Sampling rate : 48.0 KHz
Compression mode : Lossy
Delay relative to video : 16ms
Stream size : 119 MiB (4%)

Скриншоты

Скачать

Скачать торрент!

Как скачивать? · Что такое торрент? · Рейтинг и ограничения

Сайт не распространяет и не хранит электронные версии произведений, а лишь предоставляет доступ к создаваемому пользователями каталогу ссылок на торрент-файлы, которые содержат только списки хеш-сумм

[Профиль] [ЛС]
Показать сообщения:    
Ответить на тему

Текущее время: Сегодня 10:53

Часовой пояс: GMT + 4



Вы не можете начинать темы
Вы не можете отвечать на сообщения
Вы не можете редактировать свои сообщения
Вы не можете удалять свои сообщения
Вы не можете голосовать в опросах
Вы не можете прикреплять файлы к сообщениям
Вы не можете скачивать файлы