Росомаха: Бессмертный / The Wolverine (Джеймс Мэнголд / James Mangold) [2013, CША, фантастика, фэнтези, боевик, приключения, HDRip] EXTENDED | Dub [Line]

Ответить на тему
 
Автор Сообщение

user ®

Стаж: 7 лет 7 месяцев

Сообщений: 20008

Пост Пост: #1 от 08-Ноя-2013 18:30

[Цитировать]

Росомаха: Бессмертный / The Wolverine Страна: CША
Жанр: фантастика, фэнтези, боевик, приключения
Год выпуска: 2013
Продолжительность: 02:18:14.411
Перевод: Дублированное [Чистый звук] [не кинотеатральный]
Cубтитры: Russian (вшиты на расширенные сцены)
Режиссер: Джеймс Мэнголд / James Mangold

В ролях
: Хью Джекман, Фамке Янссен, Уилл Юн Ли, Брайан Ти, Светлана Ходченкова, Хироюки Санада, Рила Фукусима, Тао Окамото, Джеймс Фрайзер, Харукико Яманоути
Описание: Логан отправляется в Японию, где влюбляется в дочь главы клана Якудза. Ради любви Логану придется противостоять ее отцу Сингену, брату Самураю, наемнице Гадюке и другим опасным врагам.
Доп. информация: EXTENDED версия длиннее театральной на ~12 минут! Расширенные сцены переведены русскими хардсабами!
Сэмпл: http://multi-up.com/921007
Качество видео: HDRip
Формат видео: AVI
Видео: XviD, 720x304 (2,35:1), 23,976 кадра/сек, 1918 Кбит/сек
Аудио: AC3, 48,0 КГц, 2 канала, 192 Кбит/сек

MediaInfo

Формат : AVI
Формат/Информация : Audio Video Interleave
Размер файла : 2,05 Гбайт
Продолжительность : 2 ч. 18 м.
Общий поток : 2119 Кбит/сек
Программа кодирования : VirtualDubMod 1.5.10.2 (build 2540/release)
Библиотека кодирования : VirtualDubMod build 2540/release
Видео
Идентификатор : 0
Формат : MPEG-4 Visual
Профиль формата : Advanced Simple@L5
Параметр BVOP формата : 2
Параметр QPel формата : Нет
Параметр GMC формата : Без точки перехода
Параметр матрицы формата : Выборочная
Идентификатор кодека : XVID
Идентификатор кодека/Подсказка : XviD
Продолжительность : 2 ч. 18 м.
Битрейт : 1918 Кбит/сек
Ширина : 720 пикселей
Высота : 304 пикселя
Соотношение сторон : 2,35:1
Частота кадров : 23,976 кадра/сек
Цветовое пространство : YUV
Субдискретизация насыщенности : 4:2:0
Битовая глубина : 8 бит
Тип развёртки : Прогрессивная
Метод сжатия : С потерями
Бит/(Пиксели*Кадры) : 0.365
Размер потока : 1,85 Гбайт (90%)
Библиотека кодирования : XviD 1.2.1 (UTC 2008-12-04)
Аудио
Идентификатор : 1
Формат : AC-3
Формат/Информация : Audio Coding 3
Расширение режима : CM (complete main)
Параметр Endianness формата : Big
Идентификатор кодека : 2000
Продолжительность : 2 ч. 18 м.
Вид битрейта : Постоянный
Битрейт : 192 Кбит/сек
Каналы : 2 канала
Расположение каналов : Front: L R
Частота : 48,0 КГц
Битовая глубина : 16 бит
Метод сжатия : С потерями
Размер потока : 190 Мбайт (9%)
Выравнивание : Разделение по промежуткам
Продолжительность промежутка : 42 мс. (1,00 видеокадр)
Время предзагрузки промежутка : 500 мс.

Скриншоты

Скачать

Скачать торрент!

Как скачивать? · Что такое торрент? · Рейтинг и ограничения

Сайт не распространяет и не хранит электронные версии произведений, а лишь предоставляет доступ к создаваемому пользователями каталогу ссылок на торрент-файлы, которые содержат только списки хеш-сумм

[Профиль] [ЛС]
Показать сообщения:    
Ответить на тему

Текущее время: Сегодня 03:57

Часовой пояс: GMT + 4



Вы не можете начинать темы
Вы не можете отвечать на сообщения
Вы не можете редактировать свои сообщения
Вы не можете удалять свои сообщения
Вы не можете голосовать в опросах
Вы не можете прикреплять файлы к сообщениям
Вы не можете скачивать файлы